Loading...
Error

(Pop) Lara Fabian - En toute intimite (2003) [FLAC (Tracks+.CUE), lossless]

Статистика раздачи
Размер:  423 MB   |    Зарегистрирован:  8 лет   |    Скачан:  11 раз

Полного источника не было: 3 года 7 месяцев

Сидов:  0  |  0 KB/s  ]   Личеров:  0  |  0 KB/s  ]

* - сиды/пиры с внешних источников

   
 
Автор Сообщение

Bratok Пол:Муж

26-Май-2010 19:20

Lara Fabian - En toute intimite
Жанр: Pop
Год выпуска: 2003
Производитель диска: Нидерланды
Аудиокодек: FLAC
Тип рипа: Tracks+.CUE
Битрейт аудио: lossless
Продолжительность: 01:15:45


Это самый красивый, утонченный, даже интеллектуальный альбом, сделанный с высочайшим вкусом и любовью. Более гениальной песни, чем "Comme Ils Disent" я не слышала никогда. А какое сопровождение: фортепиано с вилончелью. Для современной поп-музыки это просто шедевр. Рекомедую всем, кто любит хорошую, глубокую, лириричную музыку, кто устал от бездарности и какофонии!!!! Слушая, отдыхаешь душой.

Треклист:

01. J'y crois encore [0:05:04.16]
02. Comme ils disent [0:05:26.30]
03. Caruso [0:05:01.40]
04. S'en aller [0:03:45.76]
05. Voir un ami pleurer [0:04:26.40]
06. Je t'aime [0:04:41.24]
07. Je suis mon coeur [0:05:22.26]
08. Addio del passato [0:05:27.49]
09. Mistral gagnant [0:04:10.44]
10. Si tu m'aimes / Parce que tu pars [0:05:26.73]
11. Tu es mon autre (avec Maurane) [0:04:19.33]
12. Medley Starmania [0:05:55.09]
13. Calling You [0:05:27.06]
14. Tout [0:03:56.97]
15. Immortelle [0:03:15.16]
16. Bambina (version guitare / voix) [0:03:59.37]


Релиз группы:
Exact Audio Copy V0.99 prebeta 5 from 4. May 2009

EAC extraction logfile from 26. May 2010, 23:22

Lara Fabian / En toute intimite

Used drive : TSSTcorpCDDVDW SH-S202J Adapter: 0 ID: 0

Read mode : Secure
Utilize accurate stream : Yes
Defeat audio cache : Yes
Make use of C2 pointers : No

Read offset correction : 6
Overread into Lead-In and Lead-Out : No
Fill up missing offset samples with silence : Yes
Delete leading and trailing silent blocks : No
Null samples used in CRC calculations : Yes
Used interface : Native Win32 interface for Win NT & 2000
Gap handling : Appended to previous track

Used output format : User Defined Encoder
Selected bitrate : 128 kBit/s
Quality : High
Add ID3 tag : No
Command line compressor : C:\Program Files\Exact Audio Copy\Flac\flac.exe
Additional command line options : -8 -V -T "ARTIST=%a" -T "TITLE=%t" -T "ALBUM=%g" -T "DATE=%y" -T "TRACKNUMBER=%n" -T "GENRE=%m" -T "COMMENT=EAC FLAC -8" %s

TOC of the extracted CD

Track | Start | Length | Start sector | End sector
---------------------------------------------------------
1 | 0:00.00 | 5:04.12 | 0 | 22811
2 | 5:04.12 | 5:26.23 | 22812 | 47284
3 | 10:30.35 | 5:01.30 | 47285 | 69889
4 | 15:31.65 | 3:45.57 | 69890 | 86821
5 | 19:17.47 | 4:26.30 | 86822 | 106801
6 | 23:44.02 | 4:41.18 | 106802 | 127894
7 | 28:25.20 | 5:22.20 | 127895 | 152064
8 | 33:47.40 | 5:27.37 | 152065 | 176626
9 | 39:15.02 | 4:10.33 | 176627 | 195409
10 | 43:25.35 | 5:26.55 | 195410 | 219914
11 | 48:52.15 | 4:19.25 | 219915 | 239364
12 | 53:11.40 | 5:55.07 | 239365 | 265996
13 | 59:06.47 | 5:27.05 | 265997 | 290526
14 | 64:33.52 | 3:56.73 | 290527 | 308299
15 | 68:30.50 | 3:15.12 | 308300 | 322936
16 | 71:45.62 | 3:59.28 | 322937 | 340889

Track 1

Filename D:\музыка на торент\Lara Fabian En toute intimite\01. Lara Fabian – J'y crois encore.wav

Pre-gap length 0:00:02.00

Peak level 100.0 %
Track quality 99.9 %
Test CRC 50FCA562
Copy CRC 50FCA562
Cannot be verified as accurate (confidence 16) [08B6FA7F], AccurateRip returned [4ABFB516]
Copy OK

Track 2

Filename D:\музыка на торент\Lara Fabian En toute intimite\02. Lara Fabian – Comme ils disent.wav

Peak level 100.0 %
Track quality 100.0 %
Test CRC 92D22D83
Copy CRC 92D22D83
Cannot be verified as accurate (confidence 16) [F9D9ED6F], AccurateRip returned [03BCEC53]
Copy OK

Track 3

Filename D:\музыка на торент\Lara Fabian En toute intimite\03. Lara Fabian – Caruso.wav

Peak level 100.0 %
Track quality 100.0 %
Test CRC 74A7FE45
Copy CRC 74A7FE45
Cannot be verified as accurate (confidence 16) [97827E62], AccurateRip returned [5A3B2A63]
Copy OK

Track 4

Filename D:\музыка на торент\Lara Fabian En toute intimite\04. Lara Fabian – S'en aller.wav

Peak level 100.0 %
Track quality 100.0 %
Test CRC 3E95B7C9
Copy CRC 3E95B7C9
Cannot be verified as accurate (confidence 16) [8B34337A], AccurateRip returned [78F551B6]
Copy OK

Track 5

Filename D:\музыка на торент\Lara Fabian En toute intimite\05. Lara Fabian – Voir un ami pleurer.wav

Peak level 98.9 %
Track quality 100.0 %
Test CRC B4394319
Copy CRC B4394319
Cannot be verified as accurate (confidence 16) [091F82A1], AccurateRip returned [1DC32EA0]
Copy OK

Track 6

Filename D:\музыка на торент\Lara Fabian En toute intimite\06. Lara Fabian – Je t'aime.wav

Peak level 100.0 %
Track quality 99.9 %
Test CRC 8B001BC4
Copy CRC 8B001BC4
Cannot be verified as accurate (confidence 16) [DD83B50C], AccurateRip returned [8E452782]
Copy OK

Track 7

Filename D:\музыка на торент\Lara Fabian En toute intimite\07. Lara Fabian – Je suis mon coeur.wav

Peak level 99.3 %
Track quality 100.0 %
Test CRC 6D6AC8D8
Copy CRC 6D6AC8D8
Cannot be verified as accurate (confidence 16) [FD51236D], AccurateRip returned [AED81BA8]
Copy OK

Track 8

Filename D:\музыка на торент\Lara Fabian En toute intimite\08. Lara Fabian – Addio del passato.wav

Peak level 99.8 %
Track quality 100.0 %
Test CRC 315CE374
Copy CRC 315CE374
Cannot be verified as accurate (confidence 16) [53C68AFE], AccurateRip returned [1D7F58AC]
Copy OK

Track 9

Filename D:\музыка на торент\Lara Fabian En toute intimite\09. Lara Fabian – Mistral gagnant.wav

Peak level 100.0 %
Track quality 100.0 %
Test CRC F6A0568C
Copy CRC F6A0568C
Cannot be verified as accurate (confidence 15) [AF3015F6], AccurateRip returned [B91A7F33]
Copy OK

Track 10

Filename D:\музыка на торент\Lara Fabian En toute intimite\10. Lara Fabian – Si tu m'aimes , Parce que tu pars.wav

Peak level 100.0 %
Track quality 99.9 %
Test CRC C2DFD322
Copy CRC C2DFD322
Cannot be verified as accurate (confidence 15) [E303616F], AccurateRip returned [FD7DE184]
Copy OK

Track 11

Filename D:\музыка на торент\Lara Fabian En toute intimite\11. Lara Fabian – Tu es mon autre (avec Maurane).wav

Peak level 100.0 %
Track quality 99.9 %
Test CRC 2A87C7EF
Copy CRC 2A87C7EF
Cannot be verified as accurate (confidence 15) [094E9385], AccurateRip returned [45B4D54E]
Copy OK

Track 12

Filename D:\музыка на торент\Lara Fabian En toute intimite\12. Lara Fabian – Medley Starmania.wav

Peak level 100.0 %
Track quality 100.0 %
Test CRC C68555C9
Copy CRC C68555C9
Cannot be verified as accurate (confidence 15) [85F22184], AccurateRip returned [8DC148E1]
Copy OK

Track 13

Filename D:\музыка на торент\Lara Fabian En toute intimite\13. Lara Fabian – Calling You.wav

Peak level 99.5 %
Track quality 99.9 %
Test CRC 11C81823
Copy CRC 11C81823
Cannot be verified as accurate (confidence 15) [97745FC9], AccurateRip returned [AE0C2ADE]
Copy OK

Track 14

Filename D:\музыка на торент\Lara Fabian En toute intimite\14. Lara Fabian – Tout.wav

Peak level 100.0 %
Track quality 100.0 %
Test CRC 8708A2AF
Copy CRC 8708A2AF
Cannot be verified as accurate (confidence 15) [9E73A441], AccurateRip returned [11BF8406]
Copy OK

Track 15

Filename D:\музыка на торент\Lara Fabian En toute intimite\15. Lara Fabian – Immortelle.wav

Peak level 99.5 %
Track quality 100.0 %
Test CRC B7E4A51B
Copy CRC B7E4A51B
Cannot be verified as accurate (confidence 15) [5AB6A6F5], AccurateRip returned [A0A3DF51]
Copy OK

Track 16

Filename D:\музыка на торент\Lara Fabian En toute intimite\16. Lara Fabian – Bambina (version guitare , voix).wav

Peak level 99.0 %
Track quality 100.0 %
Test CRC F319EFA1
Copy CRC F319EFA1
Cannot be verified as accurate (confidence 14) [C33E8F58], AccurateRip returned [F39492EC]
Copy OK

No tracks could be verified as accurate
You may have a different pressing from the one(s) in the database

No errors occurred

End of status report

Этот торрент недоступен для скачивания без регистрации, однако доступен по публичной magnet-ссылке (источники с публичных трекеров). Перед использованием ссылки прочтите, пожалуйста Пользовательское соглашение, а также как можно дольше оставайтесь на раздаче! Для того, чтобы скачать сам торрент-файл (который видит больше источников), а также для того, чтобы поблагодарить релизера, вам необходимо зарегистрироваться. Если регистрироваться лень - вы можете также попробовать скачать релиз по нашим партнерским ссылкам ниже. Кроме того, зарегистрированным пользователям не показывается всплывающая реклама при скачивании.

[underverse.su].t10329.torrent
Трекер: Зарегистрирован   [ 26.05.2010 19:20 ]  

Статус: проверено (by Bratok at 26.05.2010 19:23)
Поблагодарили: 3 человека
Тип торрента: публичный - доступные источники с открытых трекеров: 
Размер: 423 MB (занимает 0,09 DVDR, для записи нужно 1 болванка DVDR/RW)
 
 
Похожие темы
Форум Тема Автор Торрент Отв. Посл. сооб.
Зарубежная Поп Музыка (Lossless) (Pop) Lara Fabian - Greatest Hits (2CD) (2010) [FLAC (Image+.CUE), Lossless] Бишеп
17 | 0

0 | 2816

18

19.02.2014 04:55

Архив (HQ популярная музыка) (Pop) Lara Fabian - A Wonderful Life (2004) [FLAC (Tracks+.CUE), lossless] Bratok
0 | 0

1 | 1699

6

31.01.2018 20:51

Архив (HQ популярная музыка) (Pop) Lara Fabian – Lara Fabian (1999) [FLAC (Tracks+.CUE), lossless] Bratok
0 | 0

2 | 1870

4

31.01.2018 20:51

Архив (HQ популярная музыка) (Pop) Lara Fabian - Toutes Les Femmes En Moi (2009) [FLAC (Image+.CUE), lossless] Bratok
0 | 0

1 | 2266

10

25.05.2018 15:45

31-Янв-2018 20:51

Топик был перенесен из форума Зарубежная Поп Музыка (Lossless) в форум Архив (HQ популярная музыка)


[cron robot]
 

Яндекс.Метрика powered by Sphinx


В Н И М А Н И Е
Сайт не распространяет и не хранит электронные версии произведений, а лишь бесплатно и без коммерческой выгоды (не требуя взамен платы,
SMS и т.д.) предоставляет доступ к создаваемому пользователями каталогу ссылок на торрент-файлы, которые содержат только списки хеш-сумм.
Убедительная просьба с жалобами обращаться напрямую к пользователю, разместившему торрент файл.

Вверх