Loading...
Error

(Pop) Elton John - Greatest Hits 1970 - 2002 (2CD) (2002) [FLAC (Tracks+.CUE), lossless]

Статистика раздачи
Размер:  1012 MB   |    Зарегистрирован:  8 лет   |    Скачан:  6 раз

Полного источника не было: 11 месяцев

Сидов:  0  |  0 KB/s  ]   Личеров:  0  |  0 KB/s  ]

* - сиды/пиры с внешних источников

   
 
Автор Сообщение

Bratok Пол:Муж

28-Май-2010 18:23

Elton John - Greatest Hits 1970 - 2002 (2CD)
Жанр: Pop
Год выпуска: 2002
Производитель диска: Германия
Аудиокодек: FLAC
Тип рипа: Tracks+.CUE
Битрейт аудио: lossless
Продолжительность: CD1 - 01:19:06, CD2 - 01:17:50



11 ноября состоялся релиз двойного диска "Elton John Greatest Hits 1970-2002". Предыдущая пластинка, включающая хиты музыканта, называлась "The Very Best Of Elton John" и разошлась тиражом более 10 миллионов экземпляров с момента выхода в 1990 году. Однако этот сборник уникален, так как все творчество исполнителя собрано в один альбом, - здесь представлен весь музыкальный материал певца, начиная с дебютного сингла "Your Song" 1971 года и оканчивая альбомом 2001-го года "Songs From the West Coast".

CD1:
01. Elton John / Your Song [0:04:03.08]
02. Elton John / Tiny Dancer [0:06:16.62]
03. Elton John / Honky Cat [0:05:13.80]
04. Elton John / Rocket Man I Think It's Going To Be A Long, Long Time [0:04:42.64]
05. Elton John / Crocodile Rock [0:03:55.85]
06. Elton John / Daniel [0:03:54.28]
07. Elton John / Saturdays Night's Alright For Fighting [0:04:54.49]
08. Elton John / Goodbye Yellow Brick Road [0:03:14.85]
09. Elton John / Candle In The Wind [0:03:50.20]
10. Elton John / Bennie And The Jets [0:05:23.00]
11. Elton John / Don't Let The Sun Go Down On Me [0:05:37.57]
12. Elton John / The Bitch Is Back [0:03:45.12]
13. Elton John / Philadelphia Freedom [0:05:20.58]
14. Elton John / Someone Saved My Life Tonight [0:06:44.92]
15. Elton John / Island Girl [0:03:43.06]
16. Elton John & Kiki Dee / Don't Go Breaking My Heart [0:04:35.04]
17. Elton John / Sorry Seems To Be The Hardest Word [0:03:50.92]

CD2:

01. Blue Eyes [0:03:29.24]
02. I'm Still Standing [0:03:03.12]
03. I Guess That's Why They Call It The Blues [0:04:44.02]
04. Sad Songs (Say So Much) [0:04:10.18]
05. Nikita [0:05:45.26]
06. Sacrifice [0:05:06.45]
07. The One [0:05:53.14]
08. Kiss The Bride [0:04:23.10]
09. Can You Feel The Love Tonight? [0:04:02.57]
10. Circle Of Life [0:04:52.33]
11. Believe [0:04:47.74]
12. Made In England [0:04:50.64]
13. Something About The Way You Look Tonight [0:04:00.92]
14. Written In the Stars (With LeAnn Rimes) [0:04:17.16]
15. I Want Love [0:04:36.74]
16. This Train Don't Stop There Anymore [0:04:39.77]
17. Song For Guy [0:05:08.33]
Exact Audio Copy V0.99 prebeta 5 from 4. May 2009

EAC extraction logfile from 28. May 2010, 21:50

Various / Elton John~Greatest Hits 1970-2002 CD 1

Used drive : TSSTcorpCDDVDW SH-S202J Adapter: 0 ID: 0

Read mode : Secure
Utilize accurate stream : Yes
Defeat audio cache : Yes
Make use of C2 pointers : No

Read offset correction : 6
Overread into Lead-In and Lead-Out : No
Fill up missing offset samples with silence : Yes
Delete leading and trailing silent blocks : No
Null samples used in CRC calculations : Yes
Used interface : Native Win32 interface for Win NT & 2000
Gap handling : Appended to previous track

Used output format : User Defined Encoder
Selected bitrate : 128 kBit/s
Quality : High
Add ID3 tag : No
Command line compressor : C:\Program Files\Exact Audio Copy\Flac\flac.exe
Additional command line options : -8 -V -T "ARTIST=%a" -T "TITLE=%t" -T "ALBUM=%g" -T "DATE=%y" -T "TRACKNUMBER=%n" -T "GENRE=%m" -T "COMMENT=EAC FLAC -8" %s

TOC of the extracted CD

Track | Start | Length | Start sector | End sector
---------------------------------------------------------
1 | 0:00.00 | 4:03.06 | 0 | 18230
2 | 4:03.06 | 6:16.47 | 18231 | 46477
3 | 10:19.53 | 5:13.60 | 46478 | 70012
4 | 15:33.38 | 4:42.48 | 70013 | 91210
5 | 20:16.11 | 3:55.64 | 91211 | 108899
6 | 24:12.00 | 3:54.21 | 108900 | 126470
7 | 28:06.21 | 4:54.37 | 126471 | 148557
8 | 33:00.58 | 3:14.64 | 148558 | 163171
9 | 36:15.47 | 3:50.15 | 163172 | 180436
10 | 40:05.62 | 5:23.00 | 180437 | 204661
11 | 45:28.62 | 5:37.43 | 204662 | 229979
12 | 51:06.30 | 3:45.09 | 229980 | 246863
13 | 54:51.39 | 5:20.44 | 246864 | 270907
14 | 60:12.08 | 6:44.69 | 270908 | 301276
15 | 66:57.02 | 3:43.05 | 301277 | 318006
16 | 70:40.07 | 4:35.03 | 318007 | 338634
17 | 75:15.10 | 3:50.69 | 338635 | 355953

Track 1

Filename D:\музыка на торент\Elton John~Greatest Hits 1970-2002\CD1\01. Elton John – Your Song.wav

Pre-gap length 0:00:02.00

Peak level 99.8 %
Track quality 99.9 %
Test CRC 26AAB672
Copy CRC 26AAB672
Accurately ripped (confidence 120) [30567C20]
Copy OK

Track 2

Filename D:\музыка на торент\Elton John~Greatest Hits 1970-2002\CD1\02. Elton John – Tiny Dancer.wav

Pre-gap length 0:00:00.76

Peak level 99.8 %
Track quality 100.0 %
Test CRC 8E7930BB
Copy CRC 8E7930BB
Accurately ripped (confidence 118) [92430E30]
Copy OK

Track 3

Filename D:\музыка на торент\Elton John~Greatest Hits 1970-2002\CD1\03. Elton John – Honky Cat.wav

Pre-gap length 0:00:00.77

Peak level 89.6 %
Track quality 99.9 %
Test CRC 4C4DB92F
Copy CRC 4C4DB92F
Accurately ripped (confidence 116) [23DB9079]
Copy OK

Track 4

Filename D:\музыка на торент\Elton John~Greatest Hits 1970-2002\CD1\04. Elton John – Rocket Man I Think It's Going To Be A Long, Long Time.wav

Pre-gap length 0:00:00.77

Peak level 96.0 %
Track quality 100.0 %
Test CRC 0015578B
Copy CRC 0015578B
Accurately ripped (confidence 117) [08F01BC9]
Copy OK

Track 5

Filename D:\музыка на торент\Elton John~Greatest Hits 1970-2002\CD1\05. Elton John – Crocodile Rock.wav

Pre-gap length 0:00:00.76

Peak level 100.0 %
Track quality 100.0 %
Test CRC DD26B480
Copy CRC DD26B480
Accurately ripped (confidence 119) [DD9F4E5C]
Copy OK

Track 6

Filename D:\музыка на торент\Elton John~Greatest Hits 1970-2002\CD1\06. Elton John – Daniel.wav

Pre-gap length 0:00:00.77

Peak level 99.8 %
Track quality 100.0 %
Test CRC 06E60CBF
Copy CRC 06E60CBF
Accurately ripped (confidence 119) [56E5EC59]
Copy OK

Track 7

Filename D:\музыка на торент\Elton John~Greatest Hits 1970-2002\CD1\07. Elton John – Saturdays Night's Alright For Fighting.wav

Pre-gap length 0:00:00.76

Peak level 98.6 %
Track quality 100.0 %
Test CRC 02348C92
Copy CRC 02348C92
Accurately ripped (confidence 118) [5796EEBD]
Copy OK

Track 8

Filename D:\музыка на торент\Elton John~Greatest Hits 1970-2002\CD1\08. Elton John – Goodbye Yellow Brick Road.wav

Pre-gap length 0:00:00.76

Peak level 99.8 %
Track quality 100.0 %
Test CRC A4900F74
Copy CRC A4900F74
Accurately ripped (confidence 119) [7D9594B5]
Copy OK

Track 9

Filename D:\музыка на торент\Elton John~Greatest Hits 1970-2002\CD1\09. Elton John – Candle In The Wind.wav

Pre-gap length 0:00:00.77

Peak level 91.0 %
Track quality 100.0 %
Test CRC 5C20AEC0
Copy CRC 5C20AEC0
Accurately ripped (confidence 120) [46DFA42B]
Copy OK

Track 10

Filename D:\музыка на торент\Elton John~Greatest Hits 1970-2002\CD1\10. Elton John – Bennie And The Jets.wav

Pre-gap length 0:00:00.77

Peak level 97.4 %
Track quality 100.0 %
Test CRC 5F46D017
Copy CRC 5F46D017
Accurately ripped (confidence 117) [B8E989C0]
Copy OK

Track 11

Filename D:\музыка на торент\Elton John~Greatest Hits 1970-2002\CD1\11. Elton John – Don't Let The Sun Go Down On Me.wav

Pre-gap length 0:00:00.76

Peak level 99.8 %
Track quality 100.0 %
Test CRC C2A2DD20
Copy CRC C2A2DD20
Accurately ripped (confidence 116) [28EA707C]
Copy OK

Track 12

Filename D:\музыка на торент\Elton John~Greatest Hits 1970-2002\CD1\12. Elton John – The Bitch Is Back.wav

Pre-gap length 0:00:00.77

Peak level 97.5 %
Track quality 99.9 %
Test CRC 0BEB3531
Copy CRC 0BEB3531
Accurately ripped (confidence 118) [0DDDA818]
Copy OK

Track 13

Filename D:\музыка на торент\Elton John~Greatest Hits 1970-2002\CD1\13. Elton John – Philadelphia Freedom.wav

Pre-gap length 0:00:00.76

Peak level 92.7 %
Track quality 100.0 %
Test CRC 8B1DF3D4
Copy CRC 8B1DF3D4
Accurately ripped (confidence 116) [3F2F80DD]
Copy OK

Track 14

Filename D:\музыка на торент\Elton John~Greatest Hits 1970-2002\CD1\14. Elton John – Someone Saved My Life Tonight.wav

Pre-gap length 0:00:00.77

Peak level 98.6 %
Track quality 100.0 %
Test CRC 93C90276
Copy CRC 93C90276
Accurately ripped (confidence 115) [0B5BA376]
Copy OK

Track 15

Filename D:\музыка на торент\Elton John~Greatest Hits 1970-2002\CD1\15. Elton John – Island Girl.wav

Pre-gap length 0:00:00.76

Peak level 99.8 %
Track quality 100.0 %
Test CRC BBB92E99
Copy CRC BBB92E99
Accurately ripped (confidence 117) [5E8189DE]
Copy OK

Track 16

Filename D:\музыка на торент\Elton John~Greatest Hits 1970-2002\CD1\16. Elton John & Kiki Dee – Don't Go Breaking My Heart.wav

Pre-gap length 0:00:00.76

Peak level 99.8 %
Track quality 100.0 %
Test CRC 00BF2898
Copy CRC 00BF2898
Accurately ripped (confidence 117) [297136BA]
Copy OK

Track 17

Filename D:\музыка на торент\Elton John~Greatest Hits 1970-2002\CD1\17. Elton John – Sorry Seems To Be The Hardest Word.wav

Pre-gap length 0:00:00.77

Peak level 99.8 %
Track quality 100.0 %
Test CRC 06A4F58D
Copy CRC 06A4F58D
Accurately ripped (confidence 117) [4453AAB1]
Copy OK

All tracks accurately ripped

No errors occurred

End of status report


Exact Audio Copy V0.99 prebeta 5 from 4. May 2009

EAC extraction logfile from 28. May 2010, 22:14

Elton John / Greatest Hits 1970-2002 (Disc 2)

Used drive : TSSTcorpCDDVDW SH-S202J Adapter: 0 ID: 0

Read mode : Secure
Utilize accurate stream : Yes
Defeat audio cache : Yes
Make use of C2 pointers : No

Read offset correction : 6
Overread into Lead-In and Lead-Out : No
Fill up missing offset samples with silence : Yes
Delete leading and trailing silent blocks : No
Null samples used in CRC calculations : Yes
Used interface : Native Win32 interface for Win NT & 2000
Gap handling : Appended to previous track

Used output format : User Defined Encoder
Selected bitrate : 128 kBit/s
Quality : High
Add ID3 tag : No
Command line compressor : C:\Program Files\Exact Audio Copy\Flac\flac.exe
Additional command line options : -8 -V -T "ARTIST=%a" -T "TITLE=%t" -T "ALBUM=%g" -T "DATE=%y" -T "TRACKNUMBER=%n" -T "GENRE=%m" -T "COMMENT=EAC FLAC -8" %s

TOC of the extracted CD

Track | Start | Length | Start sector | End sector
---------------------------------------------------------
1 | 0:00.00 | 3:29.18 | 0 | 15692
2 | 3:29.18 | 3:03.09 | 15693 | 29426
3 | 6:32.27 | 4:44.02 | 29427 | 50728
4 | 11:16.29 | 4:10.14 | 50729 | 69492
5 | 15:26.43 | 5:45.20 | 69493 | 95387
6 | 21:11.63 | 5:06.34 | 95388 | 118371
7 | 26:18.22 | 5:53.11 | 118372 | 144857
8 | 32:11.33 | 4:23.08 | 144858 | 164590
9 | 36:34.41 | 4:02.43 | 164591 | 182783
10 | 40:37.09 | 4:52.25 | 182784 | 204708
11 | 45:29.34 | 4:47.56 | 204709 | 226289
12 | 50:17.15 | 4:50.48 | 226290 | 248087
13 | 55:07.63 | 4:00.69 | 248088 | 266156
14 | 59:08.57 | 4:17.12 | 266157 | 285443
15 | 63:25.69 | 4:36.56 | 285444 | 306199
16 | 68:02.50 | 4:39.58 | 306200 | 327182
17 | 72:42.33 | 5:08.25 | 327183 | 350307

Track 1

Filename D:\музыка на торент\Elton John~Greatest Hits 1970-2002\CD2\01. Elton John – Blue Eyes.wav

Pre-gap length 0:00:02.00

Peak level 93.2 %
Track quality 100.0 %
Test CRC 4D5284FC
Copy CRC 4D5284FC
Accurately ripped (confidence 89) [E3733D76]
Copy OK

Track 2

Filename D:\музыка на торент\Elton John~Greatest Hits 1970-2002\CD2\02. Elton John – I'm Still Standing.wav

Pre-gap length 0:00:01.77

Peak level 95.5 %
Track quality 100.0 %
Test CRC DF36D3B2
Copy CRC DF36D3B2
Accurately ripped (confidence 90) [B9AD5747]
Copy OK

Track 3

Filename D:\музыка на торент\Elton John~Greatest Hits 1970-2002\CD2\03. Elton John – I Guess That's Why They Call It The Blues.wav

Pre-gap length 0:00:01.76

Peak level 96.3 %
Track quality 100.0 %
Test CRC 167859A1
Copy CRC 167859A1
Accurately ripped (confidence 88) [00A0341C]
Copy OK

Track 4

Filename D:\музыка на торент\Elton John~Greatest Hits 1970-2002\CD2\04. Elton John – Sad Songs (Say So Much).wav

Pre-gap length 0:00:01.77

Peak level 94.7 %
Track quality 100.0 %
Test CRC 2CEC0351
Copy CRC 2CEC0351
Accurately ripped (confidence 88) [F5A82024]
Copy OK

Track 5

Filename D:\музыка на торент\Elton John~Greatest Hits 1970-2002\CD2\05. Elton John – Nikita.wav

Pre-gap length 0:00:01.77

Peak level 95.0 %
Track quality 100.0 %
Test CRC 7082CCF8
Copy CRC 7082CCF8
Accurately ripped (confidence 87) [D388580D]
Copy OK

Track 6

Filename D:\музыка на торент\Elton John~Greatest Hits 1970-2002\CD2\06. Elton John – Sacrifice.wav

Pre-gap length 0:00:01.76

Peak level 93.1 %
Track quality 100.0 %
Test CRC 565AD95A
Copy CRC 565AD95A
Accurately ripped (confidence 89) [2AE8A37A]
Copy OK

Track 7

Filename D:\музыка на торент\Elton John~Greatest Hits 1970-2002\CD2\07. Elton John – The One.wav

Pre-gap length 0:00:01.76

Peak level 94.4 %
Track quality 100.0 %
Test CRC 0B082B78
Copy CRC 0B082B78
Accurately ripped (confidence 87) [7C01E8A8]
Copy OK

Track 8

Filename D:\музыка на торент\Elton John~Greatest Hits 1970-2002\CD2\08. Elton John – Kiss The Bride.wav

Pre-gap length 0:00:01.76

Peak level 95.9 %
Track quality 100.0 %
Test CRC 59D3D535
Copy CRC 59D3D535
Accurately ripped (confidence 87) [5CD58BDC]
Copy OK

Track 9

Filename D:\музыка на торент\Elton John~Greatest Hits 1970-2002\CD2\09. Elton John – Can You Feel The Love Tonight .wav

Pre-gap length 0:00:01.76

Peak level 90.9 %
Track quality 100.0 %
Test CRC 06A4D7C5
Copy CRC 06A4D7C5
Accurately ripped (confidence 87) [FC27111A]
Copy OK

Track 10

Filename D:\музыка на торент\Elton John~Greatest Hits 1970-2002\CD2\10. Elton John – Circle Of Life.wav

Pre-gap length 0:00:01.77

Peak level 94.6 %
Track quality 100.0 %
Test CRC 5F1156ED
Copy CRC 5F1156ED
Accurately ripped (confidence 88) [8C4E05A7]
Copy OK

Track 11

Filename D:\музыка на торент\Elton John~Greatest Hits 1970-2002\CD2\11. Elton John – Believe.wav

Pre-gap length 0:00:01.77

Peak level 91.2 %
Track quality 100.0 %
Test CRC 1D3739EA
Copy CRC 1D3739EA
Accurately ripped (confidence 88) [45E3EED6]
Copy OK

Track 12

Filename D:\музыка на торент\Elton John~Greatest Hits 1970-2002\CD2\12. Elton John – Made In England.wav

Peak level 92.9 %
Track quality 100.0 %
Test CRC AA8ED2E0
Copy CRC AA8ED2E0
Accurately ripped (confidence 87) [DD2E9E44]
Copy OK

Track 13

Filename D:\музыка на торент\Elton John~Greatest Hits 1970-2002\CD2\13. Elton John – Something About The Way You Look Tonight.wav

Pre-gap length 0:00:01.76

Peak level 94.7 %
Track quality 100.0 %
Test CRC 8D7BF524
Copy CRC 8D7BF524
Accurately ripped (confidence 88) [AD176F70]
Copy OK

Track 14

Filename D:\музыка на торент\Elton John~Greatest Hits 1970-2002\CD2\14. Elton John – Written In the Stars (With LeAnn Rimes).wav

Pre-gap length 0:00:01.77

Peak level 85.3 %
Track quality 100.0 %
Test CRC CEEE4268
Copy CRC CEEE4268
Accurately ripped (confidence 86) [48A5DA02]
Copy OK

Track 15

Filename D:\музыка на торент\Elton John~Greatest Hits 1970-2002\CD2\15. Elton John – I Want Love.wav

Pre-gap length 0:00:01.77

Peak level 76.4 %
Track quality 100.0 %
Test CRC 2B0A8FD7
Copy CRC 2B0A8FD7
Accurately ripped (confidence 87) [47791DEB]
Copy OK

Track 16

Filename D:\музыка на торент\Elton John~Greatest Hits 1970-2002\CD2\16. Elton John – This Train Don't Stop There Anymore.wav

Pre-gap length 0:00:01.77

Peak level 85.7 %
Track quality 100.0 %
Test CRC 1A625D6E
Copy CRC 1A625D6E
Accurately ripped (confidence 86) [DCED7BEF]
Copy OK

Track 17

Filename D:\музыка на торент\Elton John~Greatest Hits 1970-2002\CD2\17. Elton John – Song For Guy.wav

Pre-gap length 0:00:01.68

Peak level 85.7 %
Track quality 100.0 %
Test CRC 1AC00B2E
Copy CRC 1AC00B2E
Accurately ripped (confidence 82) [71C30B29]
Copy OK

All tracks accurately ripped

No errors occurred

End of status report

Релиз группы:

Этот торрент недоступен для скачивания без регистрации, однако доступен по публичной magnet-ссылке (источники с публичных трекеров). Перед использованием ссылки прочтите, пожалуйста Пользовательское соглашение, а также как можно дольше оставайтесь на раздаче! Для того, чтобы скачать сам торрент-файл (который видит больше источников), а также для того, чтобы поблагодарить релизера, вам необходимо зарегистрироваться. Если регистрироваться лень - вы можете также попробовать скачать релиз по нашим партнерским ссылкам ниже. Кроме того, зарегистрированным пользователям не показывается всплывающая реклама при скачивании.

[underverse.su].t10359.torrent
Трекер: Зарегистрирован   [ 28.05.2010 18:43 ]  

Статус: проверено (by Bratok at 28.05.2010 19:31)
Поблагодарили: 2 человека
Тип торрента: публичный - доступные источники с открытых трекеров: 
Размер: 1012 MB (занимает 0,23 DVDR, для записи нужно 1 болванка DVDR/RW)
 
 
Похожие темы
Форум Тема Автор Торрент Отв. Посл. сооб.
Архив (популярная музыка) (Pop) Elton John - Greatest Hits 1970 - 2002 (2CD) (2002) [MP3, 320 kbps] Bratok
0 | 1

1 | 2094

7

30.08.2010 01:30

Архив (популярная музыка) (Pop) Elton John - Discography (1969-2008) [MP3, 320 kbps] Алексей 25
0 | 0

1 | 2426

0

16.06.2011 08:09

31-Янв-2018 20:51

Топик был перенесен из форума Зарубежная Поп Музыка (Lossless) в форум Архив (HQ популярная музыка)


[cron robot]
 

Яндекс.Метрика powered by Sphinx


В Н И М А Н И Е
Сайт не распространяет и не хранит электронные версии произведений, а лишь бесплатно и без коммерческой выгоды (не требуя взамен платы,
SMS и т.д.) предоставляет доступ к создаваемому пользователями каталогу ссылок на торрент-файлы, которые содержат только списки хеш-сумм.
Убедительная просьба с жалобами обращаться напрямую к пользователю, разместившему торрент файл.

Вверх