Loading...
Error

(Progressive Trance) VA - A State Of Trance 2009 (mixed by Armin van Buuren) (2CD) [FLAC (Tracks+.CUE), lossless]

Статистика раздачи
Размер:  1,05 GB   |    Зарегистрирован:  8 лет 1 месяц   |    Скачан:  1 раз

Полного источника не было: 3 года 10 месяцев

Сидов:  0  |  0 KB/s  ]   Личеров:  0  |  0 KB/s  ]

* - сиды/пиры с внешних источников

   
 
Автор Сообщение

Bratok Пол:Муж

29-Май-2010 12:49

VA - A State Of Trance 2009 (mixed by Armin van Buuren) (2CD)
Жанр: Progressive Trance
Год выпуска: 2009
Аудиокодек: FLAC
Тип рипа: Tracks+.CUE
Битрейт аудио: lossless
Продолжительность: CD1 - 01:15:03, CD2 - 01:16:33

Об Альбоме:
Очередной повод для радости всех своих фанатов предоставил ди-джей №1 в мире Армин ван Бюрен. Работа над шестой по счету микс-компиляцией серии A State Of Trance завершена и пластинка в самом скором времени увидит свет.

Визитной карточкой компиляций серии A State Of Trance всегда было высокое качество используемого музыкального материала, множество эксклюзивных, не изданных композиций, а также самых свежих ремиксов на популярные треки. Сохранилась эта хорошая традиция и в новой пластинке. Ценители классики и ветераны транс движения, наверняка с интересом поглядывают на композицию под названием Tuvan, подписанную псевдонимом Gaia, из треклиста компиляции, приведенного ниже. Да, это именно то, о чем вы подумали. Новая композиция Армина, подписанная одним из его первых псевдонимов. Именно под этим псевдонимом была издана легендарная композиция 4 elements, вышедшая в далеком 2001 году. Интересное решение. Стоит ждать классического звучания? Будем надеяться. В любом случае заинтриговать публику Армин сумел. Помимо результата собственного продюсерского таланта голландец, также, отобрал для релиза новые композиции от Andy Moor, Sunlounger, The Blizzard, John O'Callaghan, tyDi, Aly & Fila и других. Особенно, хочется отметить присутствие в треклисте компиляции ремикса украинца Евгения Смирнова, известного под псевдонимом Omnia, на композицию Monogato - Miami Vibe. Наши поздравления Евгению!

Теперь о формате пластинки. Уже традиционно релиз будет состоять из двух дисков, первый из которых озаглавлен «On The Beach», второй – «In The Club». «Пляжный» диск будет содержать красивые мелодичные композиции, прослушивание которых расслабит в жаркий летний день и заставит мысленно перенестись в гамак на берегу моря под свежий морской бриз. В то время как второй диск - «In The Club», призван не дать вам заскучать в пучине будних, ведь на нем записаны самые горячие треки под знаком A State Of Trance, которые в любой момент зарядят вас своей энергией и придадут бодрости телу и духу.


01. John O'Callaghan feat. Lo / Fi Sugar - Never Fade Away (Andy Duguid Mix - On the Beach Intro Edit) [0:06:01.17]
02. Sunlounger feat. Kyler England / Change Your Mind (Myon and Shane 54 Remix) [0:04:11.05]
03. M6 / Paradise Lost (Original Mix) [0:03:58.13]
04. Ron Hagen & Pascal M / Riddles In The Sand (Original Mix) [0:04:18.34]
05. Mat Zo / The Fractal Universe (Original Mix) [0:04:53.13]
06. The Blizzard with Gaate / Iselilja (Sunn Jellie & The Blizzard Dub Remix) [0:05:05.44]
07. Monogato / Miami Vibe (Omnia Remix) [0:05:05.45]
08. Josh Gabriel presents Winter Kills / Deep Down (Original Mix) [0:06:47.25]
09. Myon and Shane 54 feat. Aruna / Helpless (Monster Mix) [0:04:23.81]
10. tyDi feat. Audrey Gallagher / You Walk Away (Original Mix) [0:05:02.26]
11. Andy Moor & Ashley Wallbridge feat. Meighan Nealon / Faces (Original Mix) [0:05:51.76]
12. Rex Mundi feat. Susana / Nothing At All (Original Mix) [0:06:35.70]
13. Jerome Isma / Ae - Shaguar (Original Mix) [0:05:26.09]
14. Dash Berlin with Cerf, Mitiska & Jaren / Man On The Run (Nic Chagall Remix) [0:07:22.98]
01. John O'Callaghan feat. Sarah Howells / Find Yourself (Cosmic Gate Remix) [0:06:34.33]
02. Fabio XB & Ronnie Play feat. Gabriel Cage / Inside Of You (Cosmic Gate Remix) [0:05:34.20]
03. Gaia / Tuvan (Original Mix) [0:05:41.33]
04. Michael Tsukerman / Sivan (Original Mix) [0:05:59.10]
05. Cressida / Onyric (Stoneface & Terminal Remix) [0:04:01.56]
06. Claudia Cazacu feat. Audrey Gallagher / Freefalling (Original Mix) [0:04:12.25]
07. Aly & Fila / Rosaires (Original Mix) [0:05:08.32]
08. Alex M.O.R.P.H. feat. Ana Criado / Sunset Boulevard (Original Mix) [0:05:08.32]
09. Signum / Addicted (Original Mix) [0:04:12.25]
10. Robert Nickson / Circles (Andy Blueman Remix) [0:06:29.53]
11. Thomas Bronzwaer / Look Ahead (Original Mix) [0:05:31.52]
12. Neptune Project / Aztec (Original Mix) [0:03:54.82]
13. Phuture Sound feat. Angie / Come To Me (ASOT 2009 Reconstruction) [0:04:36.24]
14. Dreastic / Blade Runner (Original Mix) [0:03:41.00]
15. 3rd Moon / Monsun (Original Mix) [0:05:48.58]
Exact Audio Copy V0.99 prebeta 5 from 4. May 2009

EAC extraction logfile from 29. May 2010, 16:12

Armin van Buuren / A State of Trance 2009 (CD 01)

Used drive : TSSTcorpCDDVDW SH-S202J Adapter: 0 ID: 0

Read mode : Secure
Utilize accurate stream : Yes
Defeat audio cache : Yes
Make use of C2 pointers : No

Read offset correction : 6
Overread into Lead-In and Lead-Out : No
Fill up missing offset samples with silence : Yes
Delete leading and trailing silent blocks : No
Null samples used in CRC calculations : Yes
Used interface : Native Win32 interface for Win NT & 2000
Gap handling : Appended to previous track

Used output format : User Defined Encoder
Selected bitrate : 128 kBit/s
Quality : High
Add ID3 tag : No
Command line compressor : C:\Program Files\Exact Audio Copy\Flac\flac.exe
Additional command line options : -8 -V -T "ARTIST=%a" -T "TITLE=%t" -T "ALBUM=%g" -T "DATE=%y" -T "TRACKNUMBER=%n" -T "GENRE=%m" -T "COMMENT=EAC FLAC -8" %s

TOC of the extracted CD

Track | Start | Length | Start sector | End sector
---------------------------------------------------------
1 | 0:00.00 | 6:01.13 | 0 | 27087
2 | 6:01.13 | 4:11.04 | 27088 | 45916
3 | 10:12.17 | 3:58.10 | 45917 | 63776
4 | 14:10.27 | 4:18.26 | 63777 | 83152
5 | 18:28.53 | 4:53.10 | 83153 | 105137
6 | 23:21.63 | 5:05.33 | 105138 | 128045
7 | 28:27.21 | 5:05.34 | 128046 | 150954
8 | 33:32.55 | 6:47.19 | 150955 | 181498
9 | 40:19.74 | 4:23.61 | 181499 | 201284
10 | 44:43.60 | 5:02.20 | 201285 | 223954
11 | 49:46.05 | 5:51.57 | 223955 | 250336
12 | 55:37.62 | 6:35.53 | 250337 | 280014
13 | 62:13.40 | 5:26.07 | 280015 | 304471
14 | 67:39.47 | 7:22.74 | 304472 | 337695

Track 1

Filename D:\музыка на торент\Armin van Buuren A State of Trance 2009\A State of Trance 2009 (CD1)\01. Armin van Buuren – 01 John O'Callaghan feat. Lo , Fi Sugar - Never Fade Away (Andy Duguid Mix - On the Beach Intro Edit).wav

Pre-gap length 0:00:02.00

Peak level 96.6 %
Track quality 100.0 %
Test CRC 3E2125C4
Copy CRC 3E2125C4
Accurately ripped (confidence 6) [7E55C4B3]
Copy OK

Track 2

Filename D:\музыка на торент\Armin van Buuren A State of Trance 2009\A State of Trance 2009 (CD1)\02. Armin van Buuren – 02 Sunlounger feat. Kyler England , Change Your Mind (Myon and Shane 54 Remix).wav

Peak level 96.6 %
Track quality 99.9 %
Test CRC 974BAA08
Copy CRC 974BAA08
Accurately ripped (confidence 6) [00C4AB31]
Copy OK

Track 3

Filename D:\музыка на торент\Armin van Buuren A State of Trance 2009\A State of Trance 2009 (CD1)\03. Armin van Buuren – 03 M6 , Paradise Lost (Original Mix).wav

Peak level 96.6 %
Track quality 100.0 %
Test CRC 9A7EB6EC
Copy CRC 9A7EB6EC
Accurately ripped (confidence 6) [039EB32B]
Copy OK

Track 4

Filename D:\музыка на торент\Armin van Buuren A State of Trance 2009\A State of Trance 2009 (CD1)\04. Armin van Buuren – 04 Ron Hagen & Pascal M , Riddles In The Sand (Original Mix).wav

Peak level 96.6 %
Track quality 99.9 %
Test CRC B49601B3
Copy CRC B49601B3
Accurately ripped (confidence 6) [11D19976]
Copy OK

Track 5

Filename D:\музыка на торент\Armin van Buuren A State of Trance 2009\A State of Trance 2009 (CD1)\05. Armin van Buuren – 05 Mat Zo , The Fractal Universe (Original Mix).wav

Peak level 96.6 %
Track quality 100.0 %
Test CRC E49EB658
Copy CRC E49EB658
Accurately ripped (confidence 6) [E9779A8A]
Copy OK

Track 6

Filename D:\музыка на торент\Armin van Buuren A State of Trance 2009\A State of Trance 2009 (CD1)\06. Armin van Buuren – 06 The Blizzard with Gaate , Iselilja (Sunn Jellie & The Blizzard Dub Remix).wav

Peak level 96.6 %
Track quality 100.0 %
Test CRC 41574217
Copy CRC 41574217
Accurately ripped (confidence 6) [9711FEDE]
Copy OK

Track 7

Filename D:\музыка на торент\Armin van Buuren A State of Trance 2009\A State of Trance 2009 (CD1)\07. Armin van Buuren – 07 Monogato , Miami Vibe (Omnia Remix).wav

Peak level 96.6 %
Track quality 100.0 %
Test CRC CA478A31
Copy CRC CA478A31
Accurately ripped (confidence 6) [D35EEC1F]
Copy OK

Track 8

Filename D:\музыка на торент\Armin van Buuren A State of Trance 2009\A State of Trance 2009 (CD1)\08. Armin van Buuren – 08 Josh Gabriel presents Winter Kills , Deep Down (Original Mix).wav

Peak level 96.6 %
Track quality 100.0 %
Test CRC CAC6ACE4
Copy CRC CAC6ACE4
Accurately ripped (confidence 6) [A0F6B125]
Copy OK

Track 9

Filename D:\музыка на торент\Armin van Buuren A State of Trance 2009\A State of Trance 2009 (CD1)\09. Armin van Buuren – 09 Myon and Shane 54 feat. Aruna , Helpless (Monster Mix).wav

Peak level 96.6 %
Track quality 100.0 %
Test CRC 85A12F86
Copy CRC 85A12F86
Accurately ripped (confidence 6) [5667EA09]
Copy OK

Track 10

Filename D:\музыка на торент\Armin van Buuren A State of Trance 2009\A State of Trance 2009 (CD1)\10. Armin van Buuren – 10 tyDi feat. Audrey Gallagher , You Walk Away (Original Mix).wav

Peak level 96.6 %
Track quality 100.0 %
Test CRC E126E037
Copy CRC E126E037
Accurately ripped (confidence 6) [C9CA0AD9]
Copy OK

Track 11

Filename D:\музыка на торент\Armin van Buuren A State of Trance 2009\A State of Trance 2009 (CD1)\11. Armin van Buuren – 11 Andy Moor & Ashley Wallbridge feat. Meighan Nealon , Faces (Original Mix).wav

Peak level 96.6 %
Track quality 100.0 %
Test CRC 2748A95F
Copy CRC 2748A95F
Accurately ripped (confidence 6) [ADEC5BF4]
Copy OK

Track 12

Filename D:\музыка на торент\Armin van Buuren A State of Trance 2009\A State of Trance 2009 (CD1)\12. Armin van Buuren – 12 Rex Mundi feat. Susana , Nothing At All (Original Mix).wav

Peak level 96.6 %
Track quality 100.0 %
Test CRC 38BDB7AD
Copy CRC 38BDB7AD
Accurately ripped (confidence 6) [AA42F58E]
Copy OK

Track 13

Filename D:\музыка на торент\Armin van Buuren A State of Trance 2009\A State of Trance 2009 (CD1)\13. Armin van Buuren – 13 Jerome Isma , Ae - Shaguar (Original Mix).wav

Peak level 96.6 %
Track quality 99.9 %
Test CRC EE58D1A4
Copy CRC EE58D1A4
Accurately ripped (confidence 6) [44ACE317]
Copy OK

Track 14

Filename D:\музыка на торент\Armin van Buuren A State of Trance 2009\A State of Trance 2009 (CD1)\14. Armin van Buuren – 14 Dash Berlin with Cerf, Mitiska & Jaren , Man On The Run (Nic Chagall Remix).wav

Peak level 96.6 %
Track quality 99.9 %
Test CRC B44EDC32
Copy CRC B44EDC32
Accurately ripped (confidence 6) [3385E97F]
Copy OK

All tracks accurately ripped

No errors occurred

End of status report


Релиз группы:

Этот торрент недоступен для скачивания без регистрации, однако доступен по публичной magnet-ссылке (источники с публичных трекеров). Перед использованием ссылки прочтите, пожалуйста Пользовательское соглашение, а также как можно дольше оставайтесь на раздаче! Для того, чтобы скачать сам торрент-файл (который видит больше источников), а также для того, чтобы поблагодарить релизера, вам необходимо зарегистрироваться. Если регистрироваться лень - вы можете также попробовать скачать релиз по нашим партнерским ссылкам ниже. Кроме того, зарегистрированным пользователям не показывается всплывающая реклама при скачивании.

[underverse.su].t10376.torrent
Трекер: Зарегистрирован   [ 29.05.2010 12:52 ]  

Статус: проверено (by Bratok at 29.05.2010 13:11)
Поблагодарили: пока никто не поблагодарил...
Тип торрента: публичный - доступные источники с открытых трекеров: 
Размер: 1,05 GB (занимает 0,24 DVDR, для записи нужно 1 болванка DVDR/RW)
 
 
Похожие темы
Форум Тема Автор Торрент Отв. Посл. сооб.
Зарубежный Hard, Progressive, Soft, Melodic, AOR, Folk, Classic Rock (Progressive Rock) Pink Floyd - Echoes: The Best of Pink Floyd (2001) [iTunes AAC M4A, 256 kbps VBR] Web garry
5 | 0

1 | 4720

3

18.06.2009 21:26

Зарубежный Hard, Progressive, Soft, Melodic, AOR, Folk, Classic Rock (Progressive Rock) Liquid Blue Thursdays - Redacted Essays From Nowhere (2017) [MP3, 320 kbps CBR] Darkferse
0 | 0

0 | 719

4

04.04.2017 15:21

Зарубежный Hard, Progressive, Soft, Melodic, AOR, Folk, Classic Rock (Progressive Rock) Family Free Rock - In Full Swing (2017) [MP3, 320 kbps CBR] Darkferse
0 | 0

0 | 553

2

05.06.2017 09:20

Зарубежный Hard, Progressive, Soft, Melodic, AOR, Folk, Classic Rock (Progressive, Art-Rock) VA - The Many Faces of Pink Floyd: A Journey Through The Inner World of Pink Floyd (2013) (3CD) [MP3, 320 kbps CBR] saw444
1 | 0

3 | 1694

25

29.12.2013 06:14

Зарубежный Hard, Progressive, Soft, Melodic, AOR, Folk, Classic Rock (Progressive Rock) Asia - Gravitas [Deluxe Edition] (2014) [MP3 (tracks), 320 kbps] Jimmy
0 | 0

0 | 1984

20

22.03.2014 17:23

Зарубежный Hard, Progressive, Soft, Melodic, AOR, Folk, Classic Rock (Progressive Rock) Akrasy - Tsunami: Love (2016) [MP3, 320 kbps CBR] Darkferse
1 | 0

0 | 849

2

11.12.2016 14:19

Зарубежный Hard, Progressive, Soft, Melodic, AOR, Folk, Classic Rock (Progressive Rock, Hard Rock) Chris Brockbank's Phantom MkV - Phantom (2017) [MP3, 320 kbps CBR] Darkferse
3 | 0

0 | 604

2

05.06.2017 09:17

Зарубежный Hard, Progressive, Soft, Melodic, AOR, Folk, Classic Rock (Progressive Rock) Elephant Plaza - Momentum (2016) [MP3, 320 kbps CBR] IronMan
0 | 1

0 | 993

3

26.06.2016 17:08

Зарубежный Hard, Progressive, Soft, Melodic, AOR, Folk, Classic Rock (Progressive Rock) The Watch - Seven (2017) [MP3, 320 kbps CBR] Darkferse
0 | 0

0 | 1001

3

29.05.2017 18:50

Зарубежный Hard, Progressive, Soft, Melodic, AOR, Folk, Classic Rock (Progressive Rock, Stoner Rock) Brieg Guerveno - Valgori (2016) [MP3, 320 kbps CBR] Darkferse
1 | 1

0 | 793

1

09.01.2017 09:41



Последний раз редактировалось: Bratok (29.05.2010 14:00), всего редактировалось 4 раз(а)

31-Янв-2018 21:16

Топик был перенесен из форума Сборники в форум Архив (HQ электронная музыка)


[cron robot]
 

Яндекс.Метрика powered by Sphinx


В Н И М А Н И Е
Сайт не распространяет и не хранит электронные версии произведений, а лишь бесплатно и без коммерческой выгоды (не требуя взамен платы,
SMS и т.д.) предоставляет доступ к создаваемому пользователями каталогу ссылок на торрент-файлы, которые содержат только списки хеш-сумм.
Убедительная просьба с жалобами обращаться напрямую к пользователю, разместившему торрент файл.

Вверх