Loading...
Error

(Pop) Whitney Houston - The Greatest Hits (2CD) (2000) [FLAC (Tracks+.CUE), lossless]

Статистика раздачи
Размер:  1,04 GB   |    Зарегистрирован:  8 лет   |    Скачан:  5 раз

Полного источника не было: 1 год 3 месяца

Сидов:  0  |  0 KB/s  ]   Личеров:  0  |  0 KB/s  ]

* - сиды/пиры с внешних источников

   
 
Автор Сообщение

Bratok Пол:Муж

29-Май-2010 15:49

Whitney Houston - The Greatest Hits (2CD)
Жанр: Pop
Год выпуска: 2000
Производитель диска: США
Аудиокодек: FLAC
Тип рипа: Tracks+.CUE
Битрейт аудио: lossless
Продолжительность: CD1 - 01:18:17, CD2 - 01:17:33



Весной 2000 года вышел сборник лучших песен Whitney: The Greatest Hits. В альбом вошли прежние баллады, вместо известных быстрых песен были включены и хаус и ремикс версии, а также четыре новые песни, включая три дуэта с известными певцами: Could I Have This Kiss Forever с Энрике Иглесиасом, Same Script, Different Cast с Деборой Кокс и If I Told You That с Джорджем Майклом.
01. You Give Good Love [0:04:10.89]
02. Saving All My Love For You [0:03:57.64]
03. Greatest Love Of All [0:04:54.49]
04. All At Once [0:04:29.04]
05. If You Say My Eyes Are Beautiful (Duet With Jermaine Jackson) [0:04:20.76]
06. Didn't We Almost Have It All [0:04:38.13]
07. Where Do Broken Hearts Go [0:04:38.50]
08. All The Man That I Need [0:03:57.02]
09. Run To You [0:04:27.13]
10. I Have Nothing [0:04:53.60]
11. I Will Always Love You [0:04:28.86]
12. Exhale (Shoop Shoop) [0:03:25.57]
13. Why Does It Hurt So Bad [0:04:40.89]
14. I Believe In You And Me [0:03:54.46]
15. Heartbreak Hotel (Featuring Faith Evans & Kelly Price) [0:04:06.84]
16. My Love Is Your Love [0:04:19.82]
17. Same Script, Different Cast (Duet With Deborah Cox) [0:04:58.10]
18. Could I Have This Kiss Forever (Duet With Enrique Iglesias) (Metro Mix) [0:03:55.62]
Exact Audio Copy V0.99 prebeta 5 from 4. May 2009

EAC extraction logfile from 29. May 2010, 18:53

Whitney Houston / The Greatest Hits - CD 1 (Cool Down)

Used drive : TSSTcorpCDDVDW SH-S202J Adapter: 0 ID: 0

Read mode : Secure
Utilize accurate stream : Yes
Defeat audio cache : Yes
Make use of C2 pointers : No

Read offset correction : 6
Overread into Lead-In and Lead-Out : No
Fill up missing offset samples with silence : Yes
Delete leading and trailing silent blocks : No
Null samples used in CRC calculations : Yes
Used interface : Native Win32 interface for Win NT & 2000
Gap handling : Appended to previous track

Used output format : User Defined Encoder
Selected bitrate : 128 kBit/s
Quality : High
Add ID3 tag : No
Command line compressor : C:\Program Files\Exact Audio Copy\Flac\flac.exe
Additional command line options : -8 -V -T "ARTIST=%a" -T "TITLE=%t" -T "ALBUM=%g" -T "DATE=%y" -T "TRACKNUMBER=%n" -T "GENRE=%m" -T "COMMENT=EAC FLAC -8" %s

TOC of the extracted CD

Track | Start | Length | Start sector | End sector
---------------------------------------------------------
1 | 0:00.00 | 4:10.67 | 0 | 18816
2 | 4:10.67 | 3:57.48 | 18817 | 36639
3 | 8:08.40 | 4:54.37 | 36640 | 58726
4 | 13:03.02 | 4:29.03 | 58727 | 78904
5 | 17:32.05 | 4:20.57 | 78905 | 98461
6 | 21:52.62 | 4:38.10 | 98462 | 119321
7 | 26:30.72 | 4:38.38 | 119322 | 140209
8 | 31:09.35 | 3:57.02 | 140210 | 157986
9 | 35:06.37 | 4:27.10 | 157987 | 178021
10 | 39:33.47 | 4:53.45 | 178022 | 200041
11 | 44:27.17 | 4:28.65 | 200042 | 220206
12 | 48:56.07 | 3:25.43 | 220207 | 235624
13 | 52:21.50 | 4:40.67 | 235625 | 256691
14 | 57:02.42 | 3:54.35 | 256692 | 274276
15 | 60:57.02 | 4:06.63 | 274277 | 292789
16 | 65:03.65 | 4:19.62 | 292790 | 312276
17 | 69:23.52 | 4:58.08 | 312277 | 334634
18 | 74:21.60 | 3:55.47 | 334635 | 352306

Track 1

Filename D:\музыка на торент\Whitney Houston The Greatest Hits\Greatest Hits - CD 1 (Cool Down)\01. Whitney Houston – You Give Good Love.wav

Pre-gap length 0:00:02.00

Peak level 88.1 %
Track quality 100.0 %
Test CRC 397606C1
Copy CRC 397606C1
Accurately ripped (confidence 32) [CBB4C7E8]
Copy OK

Track 2

Filename D:\музыка на торент\Whitney Houston The Greatest Hits\Greatest Hits - CD 1 (Cool Down)\02. Whitney Houston – Saving All My Love For You.wav

Pre-gap length 0:00:01.62

Peak level 98.8 %
Track quality 100.0 %
Test CRC 2CE3E260
Copy CRC 2CE3E260
Accurately ripped (confidence 31) [46C3FD63]
Copy OK

Track 3

Filename D:\музыка на торент\Whitney Houston The Greatest Hits\Greatest Hits - CD 1 (Cool Down)\03. Whitney Houston – Greatest Love Of All.wav

Pre-gap length 0:00:02.70

Peak level 98.8 %
Track quality 100.0 %
Test CRC A4350108
Copy CRC A4350108
Accurately ripped (confidence 31) [3E6BC968]
Copy OK

Track 4

Filename D:\музыка на торент\Whitney Houston The Greatest Hits\Greatest Hits - CD 1 (Cool Down)\04. Whitney Houston – All At Once.wav

Pre-gap length 0:00:05.62

Peak level 98.8 %
Track quality 100.0 %
Test CRC 70E38CA4
Copy CRC 70E38CA4
Accurately ripped (confidence 30) [E21358D1]
Copy OK

Track 5

Filename D:\музыка на торент\Whitney Houston The Greatest Hits\Greatest Hits - CD 1 (Cool Down)\05. Whitney Houston – If You Say My Eyes Are Beautiful (Duet With Jermaine Jackson).wav

Pre-gap length 0:00:03.10

Peak level 98.8 %
Track quality 100.0 %
Test CRC 821CAFDF
Copy CRC 821CAFDF
Accurately ripped (confidence 30) [A425F03A]
Copy OK

Track 6

Filename D:\музыка на торент\Whitney Houston The Greatest Hits\Greatest Hits - CD 1 (Cool Down)\06. Whitney Houston – Didn't We Almost Have It All.wav

Pre-gap length 0:00:03.86

Peak level 86.1 %
Track quality 100.0 %
Test CRC 926BFCB3
Copy CRC 926BFCB3
Accurately ripped (confidence 31) [46D94841]
Copy OK

Track 7

Filename D:\музыка на торент\Whitney Houston The Greatest Hits\Greatest Hits - CD 1 (Cool Down)\07. Whitney Houston – Where Do Broken Hearts Go.wav

Pre-gap length 0:00:03.46

Peak level 98.8 %
Track quality 100.0 %
Test CRC 013B1E52
Copy CRC 013B1E52
Accurately ripped (confidence 28) [9B4493B7]
Copy OK

Track 8

Filename D:\музыка на торент\Whitney Houston The Greatest Hits\Greatest Hits - CD 1 (Cool Down)\08. Whitney Houston – All The Man That I Need.wav

Pre-gap length 0:00:03.24

Peak level 98.8 %
Track quality 100.0 %
Test CRC C5DDB3E9
Copy CRC C5DDB3E9
Accurately ripped (confidence 30) [C8E10B72]
Copy OK

Track 9

Filename D:\музыка на торент\Whitney Houston The Greatest Hits\Greatest Hits - CD 1 (Cool Down)\09. Whitney Houston – Run To You.wav

Pre-gap length 0:00:02.09

Peak level 98.8 %
Track quality 100.0 %
Test CRC 6518CBC7
Copy CRC 6518CBC7
Accurately ripped (confidence 30) [0E8C2C72]
Copy OK

Track 10

Filename D:\музыка на торент\Whitney Houston The Greatest Hits\Greatest Hits - CD 1 (Cool Down)\10. Whitney Houston – I Have Nothing.wav

Pre-gap length 0:00:02.62

Peak level 98.8 %
Track quality 100.0 %
Test CRC EFB2DA92
Copy CRC EFB2DA92
Accurately ripped (confidence 29) [BEEE7750]
Copy OK

Track 11

Filename D:\музыка на торент\Whitney Houston The Greatest Hits\Greatest Hits - CD 1 (Cool Down)\11. Whitney Houston – I Will Always Love You.wav

Pre-gap length 0:00:05.66

Peak level 98.8 %
Track quality 100.0 %
Test CRC F98D5529
Copy CRC F98D5529
Accurately ripped (confidence 30) [C6934E81]
Copy OK

Track 12

Filename D:\музыка на торент\Whitney Houston The Greatest Hits\Greatest Hits - CD 1 (Cool Down)\12. Whitney Houston – Exhale (Shoop Shoop).wav

Pre-gap length 0:00:05.06

Peak level 81.2 %
Track quality 100.0 %
Test CRC 9DFFC9A7
Copy CRC 9DFFC9A7
Accurately ripped (confidence 29) [0F83E72D]
Copy OK

Track 13

Filename D:\музыка на торент\Whitney Houston The Greatest Hits\Greatest Hits - CD 1 (Cool Down)\13. Whitney Houston – Why Does It Hurt So Bad.wav

Pre-gap length 0:00:04.00

Peak level 98.8 %
Track quality 99.9 %
Test CRC 5B4952AB
Copy CRC 5B4952AB
Accurately ripped (confidence 28) [68B01A34]
Copy OK

Track 14

Filename D:\музыка на торент\Whitney Houston The Greatest Hits\Greatest Hits - CD 1 (Cool Down)\14. Whitney Houston – I Believe In You And Me.wav

Pre-gap length 0:00:03.82

Peak level 98.8 %
Track quality 100.0 %
Test CRC 4CC36D44
Copy CRC 4CC36D44
Accurately ripped (confidence 28) [9648616F]
Copy OK

Track 15

Filename D:\музыка на торент\Whitney Houston The Greatest Hits\Greatest Hits - CD 1 (Cool Down)\15. Whitney Houston – Heartbreak Hotel (Featuring Faith Evans & Kelly Price).wav

Pre-gap length 0:00:02.46

Peak level 98.8 %
Track quality 100.0 %
Test CRC 75A5C6A1
Copy CRC 75A5C6A1
Accurately ripped (confidence 27) [6229CC3F]
Copy OK

Track 16

Filename D:\музыка на торент\Whitney Houston The Greatest Hits\Greatest Hits - CD 1 (Cool Down)\16. Whitney Houston – My Love Is Your Love.wav

Pre-gap length 0:00:01.57

Peak level 98.8 %
Track quality 100.0 %
Test CRC AE709481
Copy CRC AE709481
Accurately ripped (confidence 28) [0D5A3990]
Copy OK

Track 17

Filename D:\музыка на торент\Whitney Houston The Greatest Hits\Greatest Hits - CD 1 (Cool Down)\17. Whitney Houston – Same Script, Different Cast (Duet With Deborah Cox).wav

Peak level 98.8 %
Track quality 100.0 %
Test CRC 20FB48DD
Copy CRC 20FB48DD
Accurately ripped (confidence 26) [D83A7E3C]
Copy OK

Track 18

Filename D:\музыка на торент\Whitney Houston The Greatest Hits\Greatest Hits - CD 1 (Cool Down)\18. Whitney Houston – Could I Have This Kiss Forever (Duet With Enrique Iglesias) (Metro Mix).wav

Peak level 81.2 %
Track quality 100.0 %
Test CRC 10D92377
Copy CRC 10D92377
Accurately ripped (confidence 27) [0D7D9E8C]
Copy OK

All tracks accurately ripped

No errors occurred

End of status report
01. Fine [0:03:34.86]
02. If I Told You That (Whitney Houston & George Michael) [0:04:33.26]
03. It's Not Right But It's Okay (Thunderpuss Mix) [0:04:15.53]
(Thunderpuss Mix)
04. My Love Is Your Love (Jonathan Peters Mix) [0:04:18.09]
(Jonathan Peters Mix)
05. Heartbreak Hotel (Featuring Faith Evans & Kelly Price) (Hex Hector Mix) [0:04:20.66]
(Hex Nector Mix)
06. I Learned From The Best (HQ2 Mix) [0:04:23.06]
(HQІ Mix)
07. Step By Step (Junior Vasquez Mix) [0:04:04.97]
(Junour Vasquez Mix)
08. I'm Every Woman (Clivilles & Cole Mix) [0:04:30.82]
(Clivilles & Cole Mix)
09. Queen Of The Night (CJ MacKintosh Mix) [0:03:45.97]
(CJ Mackintosh Mix)
10. I Will Always Love You (Hex Hector Mix) [0:04:50.86]
(Hex Hector Mix)
11. Love Will Save The Day (Jellybean & David Morales Mix) [0:05:05.96]
(Jellybean & David Morales Mix)
12. I'm Your Baby Tonight (Dronez Mix) [0:05:05.00]
(Dronez Mix)
13. So Emotional (David Morales Mix) [0:03:57.24]
(David Morales Mix)
14. I Wanna Dance With Somebody (Who Loves Me) (Junior Vasquez Mix) [0:04:24.96]
(Junior Vasquez Mix)
15. How Will I Know (Junior Vasquez Mix) [0:04:09.80]
(Junior Vasquez Mix)
16. Greatest Love Of All (Junior Vasquez Mix) [0:05:09.26]
(Junior Vasquez Mix)
17. One Moment In Time [0:04:47.20]
Bonus Tracks
18. The Star Spangled Banner (Peformed Live 1-27-91 At Super Bowl XXV) [0:02:15.10]
Bonus Tracks (Performed Live 1/27/91 At Super Bowl XXV)
Exact Audio Copy V0.99 prebeta 5 from 4. May 2009

EAC extraction logfile from 29. May 2010, 19:21

Whitney Houston / The Greatest Hits - CD 2 (Throw Down)

Used drive : TSSTcorpCDDVDW SH-S202J Adapter: 0 ID: 0

Read mode : Secure
Utilize accurate stream : Yes
Defeat audio cache : Yes
Make use of C2 pointers : No

Read offset correction : 6
Overread into Lead-In and Lead-Out : No
Fill up missing offset samples with silence : Yes
Delete leading and trailing silent blocks : No
Null samples used in CRC calculations : Yes
Used interface : Native Win32 interface for Win NT & 2000
Gap handling : Appended to previous track

Used output format : User Defined Encoder
Selected bitrate : 128 kBit/s
Quality : High
Add ID3 tag : No
Command line compressor : C:\Program Files\Exact Audio Copy\Flac\flac.exe
Additional command line options : -8 -V -T "ARTIST=%a" -T "TITLE=%t" -T "ALBUM=%g" -T "DATE=%y" -T "TRACKNUMBER=%n" -T "GENRE=%m" -T "COMMENT=EAC FLAC -8" %s

TOC of the extracted CD

Track | Start | Length | Start sector | End sector
---------------------------------------------------------
1 | 0:00.00 | 3:34.65 | 0 | 16114
2 | 3:34.65 | 4:33.20 | 16115 | 36609
3 | 8:08.10 | 4:15.40 | 36610 | 55774
4 | 12:23.50 | 4:18.07 | 55775 | 75131
5 | 16:41.57 | 4:20.50 | 75132 | 94681
6 | 21:02.32 | 4:23.05 | 94682 | 114411
7 | 25:25.37 | 4:04.73 | 114412 | 132784
8 | 29:30.35 | 4:30.62 | 132785 | 153096
9 | 34:01.22 | 3:45.73 | 153097 | 170044
10 | 37:47.20 | 4:50.65 | 170045 | 191859
11 | 42:38.10 | 5:05.72 | 191860 | 214806
12 | 47:44.07 | 5:05.00 | 214807 | 237681
13 | 52:49.07 | 3:57.18 | 237682 | 255474
14 | 56:46.25 | 4:24.72 | 255475 | 275346
15 | 61:11.22 | 4:09.60 | 275347 | 294081
16 | 65:21.07 | 5:09.20 | 294082 | 317276
17 | 70:30.27 | 4:47.15 | 317277 | 338816
18 | 75:17.42 | 2:15.08 | 338817 | 348949

Track 1

Filename D:\музыка на торент\Whitney Houston The Greatest Hits\The Greatest Hits - CD 2 (Throw Down)\01. Whitney Houston – Fine.wav

Pre-gap length 0:00:02.00

Peak level 97.7 %
Track quality 99.9 %
Test CRC 87E6E54B
Copy CRC 87E6E54B
Accurately ripped (confidence 15) [B184FE72]
Copy OK

Track 2

Filename D:\музыка на торент\Whitney Houston The Greatest Hits\The Greatest Hits - CD 2 (Throw Down)\02. Whitney Houston – If I Told You That (Whitney Houston & George Michael).wav

Peak level 98.8 %
Track quality 99.9 %
Test CRC 70C84132
Copy CRC 70C84132
Accurately ripped (confidence 15) [14B8FF70]
Copy OK

Track 3

Filename D:\музыка на торент\Whitney Houston The Greatest Hits\The Greatest Hits - CD 2 (Throw Down)\03. Whitney Houston – It's Not Right But It's Okay (Thunderpuss Mix).wav

Peak level 98.8 %
Track quality 100.0 %
Test CRC 8A2C0B5F
Copy CRC 8A2C0B5F
Accurately ripped (confidence 15) [6A201C7F]
Copy OK

Track 4

Filename D:\музыка на торент\Whitney Houston The Greatest Hits\The Greatest Hits - CD 2 (Throw Down)\04. Whitney Houston – My Love Is Your Love (Jonathan Peters Mix).wav

Peak level 98.8 %
Track quality 100.0 %
Test CRC 9AFDF994
Copy CRC 9AFDF994
Accurately ripped (confidence 15) [76E13041]
Copy OK

Track 5

Filename D:\музыка на торент\Whitney Houston The Greatest Hits\The Greatest Hits - CD 2 (Throw Down)\05. Whitney Houston – Heartbreak Hotel (Featuring Faith Evans & Kelly Price) (Hex Hector Mix).wav

Peak level 98.8 %
Track quality 99.9 %
Test CRC 1A0459D8
Copy CRC 1A0459D8
Accurately ripped (confidence 15) [0E6EA48D]
Copy OK

Track 6

Filename D:\музыка на торент\Whitney Houston The Greatest Hits\The Greatest Hits - CD 2 (Throw Down)\06. Whitney Houston – I Learned From The Best (HQ2 Mix).wav

Peak level 98.8 %
Track quality 100.0 %
Test CRC 6A9080E9
Copy CRC 6A9080E9
Accurately ripped (confidence 15) [35A74526]
Copy OK

Track 7

Filename D:\музыка на торент\Whitney Houston The Greatest Hits\The Greatest Hits - CD 2 (Throw Down)\07. Whitney Houston – Step By Step (Junior Vasquez Mix).wav

Peak level 98.8 %
Track quality 100.0 %
Test CRC 27D31734
Copy CRC 27D31734
Accurately ripped (confidence 15) [ED287773]
Copy OK

Track 8

Filename D:\музыка на торент\Whitney Houston The Greatest Hits\The Greatest Hits - CD 2 (Throw Down)\08. Whitney Houston – I'm Every Woman (Clivilles & Cole Mix).wav

Peak level 97.7 %
Track quality 100.0 %
Test CRC 4364C49C
Copy CRC 4364C49C
Accurately ripped (confidence 15) [FF234D25]
Copy OK

Track 9

Filename D:\музыка на торент\Whitney Houston The Greatest Hits\The Greatest Hits - CD 2 (Throw Down)\09. Whitney Houston – Queen Of The Night (CJ MacKintosh Mix).wav

Peak level 98.8 %
Track quality 100.0 %
Test CRC FD701F50
Copy CRC FD701F50
Accurately ripped (confidence 14) [AE2EA464]
Copy OK

Track 10

Filename D:\музыка на торент\Whitney Houston The Greatest Hits\The Greatest Hits - CD 2 (Throw Down)\10. Whitney Houston – I Will Always Love You (Hex Hector Mix).wav

Peak level 97.7 %
Track quality 99.9 %
Test CRC 383E67F1
Copy CRC 383E67F1
Accurately ripped (confidence 14) [8E8995E5]
Copy OK

Track 11

Filename D:\музыка на торент\Whitney Houston The Greatest Hits\The Greatest Hits - CD 2 (Throw Down)\11. Whitney Houston – Love Will Save The Day (Jellybean & David Morales Mix).wav

Peak level 98.4 %
Track quality 100.0 %
Test CRC 0E4C9DBC
Copy CRC 0E4C9DBC
Accurately ripped (confidence 14) [010DF8B0]
Copy OK

Track 12

Filename D:\музыка на торент\Whitney Houston The Greatest Hits\The Greatest Hits - CD 2 (Throw Down)\12. Whitney Houston – I'm Your Baby Tonight (Dronez Mix).wav

Peak level 97.7 %
Track quality 100.0 %
Test CRC 023D8264
Copy CRC 023D8264
Accurately ripped (confidence 14) [16AA0B92]
Copy OK

Track 13

Filename D:\музыка на торент\Whitney Houston The Greatest Hits\The Greatest Hits - CD 2 (Throw Down)\13. Whitney Houston – So Emotional (David Morales Mix).wav

Peak level 98.8 %
Track quality 100.0 %
Test CRC C55300F2
Copy CRC C55300F2
Accurately ripped (confidence 13) [BFFB3C80]
Copy OK

Track 14

Filename D:\музыка на торент\Whitney Houston The Greatest Hits\The Greatest Hits - CD 2 (Throw Down)\14. Whitney Houston – I Wanna Dance With Somebody (Who Loves Me) (Junior Vasquez Mix).wav

Peak level 98.0 %
Track quality 100.0 %
Test CRC 6F917F3A
Copy CRC 6F917F3A
Accurately ripped (confidence 14) [F002B1C2]
Copy OK

Track 15

Filename D:\музыка на торент\Whitney Houston The Greatest Hits\The Greatest Hits - CD 2 (Throw Down)\15. Whitney Houston – How Will I Know (Junior Vasquez Mix).wav

Peak level 98.8 %
Track quality 100.0 %
Test CRC 2215E09A
Copy CRC 2215E09A
Accurately ripped (confidence 13) [3AE405BE]
Copy OK

Track 16

Filename D:\музыка на торент\Whitney Houston The Greatest Hits\The Greatest Hits - CD 2 (Throw Down)\16. Whitney Houston – Greatest Love Of All (Junior Vasquez Mix).wav

Peak level 98.8 %
Track quality 100.0 %
Test CRC CB04D88A
Copy CRC CB04D88A
Accurately ripped (confidence 13) [646FC7C7]
Copy OK

Track 17

Filename D:\музыка на торент\Whitney Houston The Greatest Hits\The Greatest Hits - CD 2 (Throw Down)\17. Whitney Houston – One Moment In Time.wav

Pre-gap length 0:00:18.26

Peak level 97.7 %
Track quality 99.9 %
Test CRC 7BD738D2
Copy CRC 7BD738D2
Accurately ripped (confidence 13) [03408DFD]
Copy OK

Track 18

Filename D:\музыка на торент\Whitney Houston The Greatest Hits\The Greatest Hits - CD 2 (Throw Down)\18. Whitney Houston – The Star Spangled Banner (Peformed Live 1-27-91 At Super Bowl XXV).wav

Pre-gap length 0:00:02.56

Peak level 77.9 %
Track quality 100.0 %
Test CRC 3AFF67DD
Copy CRC 3AFF67DD
Accurately ripped (confidence 11) [049EBBAA]
Copy OK

All tracks accurately ripped

No errors occurred

End of status report

Релиз группы:

Этот торрент недоступен для скачивания без регистрации, однако доступен по публичной magnet-ссылке (источники с публичных трекеров). Перед использованием ссылки прочтите, пожалуйста Пользовательское соглашение, а также как можно дольше оставайтесь на раздаче! Для того, чтобы скачать сам торрент-файл (который видит больше источников), а также для того, чтобы поблагодарить релизера, вам необходимо зарегистрироваться. Если регистрироваться лень - вы можете также попробовать скачать релиз по нашим партнерским ссылкам ниже. Кроме того, зарегистрированным пользователям не показывается всплывающая реклама при скачивании.

[underverse.su].t10380.torrent
Трекер: Зарегистрирован   [ 29.05.2010 15:59 ]  

Статус: проверено (by Bratok at 31.05.2010 21:33)
Поблагодарили: пока никто не поблагодарил...
Тип торрента: публичный - доступные источники с открытых трекеров: 
Размер: 1,04 GB (занимает 0,24 DVDR, для записи нужно 1 болванка DVDR/RW)
 
 
Похожие темы
Форум Тема Автор Торрент Отв. Посл. сооб.
Зарубежная Pop Музыка (Pop) Whitney Houston - Whitney Houston (The Deluxe Anniversary Edition) (2010) [MP3, 320 kbps CBR] Боцман
0 | 0

0 | 236

4

25.03.2018 18:15

Архив (популярная музыка) (Pop) Whitney Houston - Дискография (1985-2009) [MP3, VBR 320 kbps] Алексей 25
0 | 0

3 | 1437

0

24.12.2011 17:06

guru 

15-Окт-2011 08:19

и ?

31-Янв-2018 20:51

Топик был перенесен из форума Зарубежная Поп Музыка (Lossless) в форум Архив (HQ популярная музыка)


[cron robot]
 

Яндекс.Метрика powered by Sphinx


В Н И М А Н И Е
Сайт не распространяет и не хранит электронные версии произведений, а лишь бесплатно и без коммерческой выгоды (не требуя взамен платы,
SMS и т.д.) предоставляет доступ к создаваемому пользователями каталогу ссылок на торрент-файлы, которые содержат только списки хеш-сумм.
Убедительная просьба с жалобами обращаться напрямую к пользователю, разместившему торрент файл.

Вверх