Loading...
Error

(Рор) Mylene Farmer - Degeneration (Remixes) (2008) [APE (Image+.CUE), lossless]

Статистика раздачи
Размер:  168 MB   |    Зарегистрирован:  8 лет   |    Скачан:  1 раз

Полного источника не было: 7 лет 9 месяцев

Сидов:  0  |  0 KB/s  ]   Личеров:  0  |  0 KB/s  ]

* - сиды/пиры с внешних источников

   
 
Автор Сообщение

F@ust 

29-Май-2010 18:57

Mylene Farmer - Degeneration (Remixes)
Жанр: Рор
Год выпуска: 2008
Аудиокодек: APE
Тип рипа: Image+.CUE
Битрейт аудио: lossless
Продолжительность: 00:23:50

Tracklist:

01. Degeneration (Single Version) 05:30
02. Degeneration (Tomer G Sexy Club Mix) 08:33
03. Degeneration (MHC Future Generation Remix Club) 06:31
04. Degeneration (Manhattan Clique Mix) 03:18
Exact Audio Copy V0.99 prebeta 4 from 23. January 2008

EAC extraction logfile from 4. April 2009, 21:46

Mylene Farmer / Degeneration (CDM)

Used drive : Optiarc DVD RW AD-7200S Adapter: 2 ID: 0

Read mode : Secure
Utilize accurate stream : Yes
Defeat audio cache : Yes
Make use of C2 pointers : No

Read offset correction : 48
Overread into Lead-In and Lead-Out : No
Fill up missing offset samples with silence : Yes
Delete leading and trailing silent blocks : No
Null samples used in CRC calculations : Yes
Used interface : Installed external ASPI interface

Used output format : Internal WAV Routines
Sample format : 44.100 Hz; 16 Bit; Stereo

TOC of the extracted CD

Track | Start | Length | Start sector | End sector
---------------------------------------------------------
1 | 0:00.00 | 5:29.43 | 0 | 24717
2 | 5:29.43 | 8:32.55 | 24718 | 63172
3 | 14:02.23 | 6:28.64 | 63173 | 92336
4 | 20:31.12 | 3:19.57 | 92337 | 107318

Range status and errors

Selected range

Filename E:\Mylene_Farmer\Mylene Farmer - Degeneration (CDM).wav

Peak level 99.7 %
Range quality 100.0 %
Copy CRC 56DC50B9
Copy OK

No errors occurred

End of status report
AUDIOCHECKER v2.0 beta (build 457)
~~~~~~~~~~~~~~~~~~~~~~~~~~~~~~~~~~
-=== DO NOT EDIT THIS FILE! ===-

Path: ...\Mylene Farmer - Degerenation Remixes 2008 (CDM)

1 -=- Mylene Farmer - Degeneration (CDM).ape -=- CDDA (100%)

85067380

Этот торрент недоступен для скачивания без регистрации, однако доступен по публичной magnet-ссылке (источники с публичных трекеров). Перед использованием ссылки прочтите, пожалуйста Пользовательское соглашение, а также как можно дольше оставайтесь на раздаче! Для того, чтобы скачать сам торрент-файл (который видит больше источников), а также для того, чтобы поблагодарить релизера, вам необходимо зарегистрироваться. Если регистрироваться лень - вы можете также попробовать скачать релиз по нашим партнерским ссылкам ниже. Кроме того, зарегистрированным пользователям не показывается всплывающая реклама при скачивании.

[underverse.su].t10382.torrent
Трекер: Зарегистрирован   [ 29.05.2010 18:57 ]  

Статус: проверено (by Паукан at 30.05.2010 01:56)
Поблагодарили: пока никто не поблагодарил...
Тип торрента: публичный - доступные источники с открытых трекеров: 
Размер: 168 MB (занимает 0,04 DVDR, для записи нужно 1 болванка DVDR/RW)
 
 
Похожие темы
Форум Тема Автор Торрент Отв. Посл. сооб.
Архив (HQ популярная музыка) (Рор) Mylene Farmer - Si J`Avais Au Moins... (2009) [APE (Image+.CUE), lossless] F@ust
0 | 0

1 | 1081

3

17.02.2011 14:46

17-Фев-2011 14:46

Топик был перенесен из форума Зарубежная Поп Музыка (Lossless) в форум Архив


[cron robot]
 

Яндекс.Метрика powered by Sphinx


В Н И М А Н И Е
Сайт не распространяет и не хранит электронные версии произведений, а лишь бесплатно и без коммерческой выгоды (не требуя взамен платы,
SMS и т.д.) предоставляет доступ к создаваемому пользователями каталогу ссылок на торрент-файлы, которые содержат только списки хеш-сумм.
Убедительная просьба с жалобами обращаться напрямую к пользователю, разместившему торрент файл.

Вверх