Loading...
Error

(Pop) Britney Spears - Oops!...I Did It Again (2000) [FLAC (Tracks+.CUE), lossless]

Статистика раздачи
Размер:  388 MB   |    Зарегистрирован:  8 лет   |    Скачан:  1 раз

Полного источника не было: 1 месяц 17 дней

Сидов:  0  |  0 KB/s  ]   Личеров:  0  |  0 KB/s  ]

* - сиды/пиры с внешних источников

   
 
Автор Сообщение

F@ust 

09-Июн-2010 16:35

Britney Spears - Oops!...I Did It Again
Жанр: Pop
Год выпуска: 2000
Страна: USA
Аудиокодек: FLAC
Тип рипа: Tracks+.CUE
Битрейт аудио: lossless
Продолжительность: 00:55:36

Tracklist:

01. Oops! I Did It Again
02. Stronger
03. Don't Go Knockin' On My Door
04. (I Can't Get No) Satisfaction
05. Don't Let Me Be The Last To Know
06. What U See (Is What U Get)
07. Lucky
08. One Kiss From You
09. Where You Are Now
10. Can't Make You Love Me
11. When Your Eyes Say It
12. Girl In The Mirror
13. You Got It All
14. Heart
15. Dear diary
Exact Audio Copy V0.99 prebeta 4 from 23. January 2008

EAC extraction logfile from 30. December 2008, 16:58

Britany Spears / Oops...I Did It Again

Used drive : PIONEER DVD-RW DVR-111D Adapter: 0 ID: 0

Read mode : Secure
Utilize accurate stream : Yes
Defeat audio cache : Yes
Make use of C2 pointers : No

Combined read/write offset correction : 0
Overread into Lead-In and Lead-Out : No
Fill up missing offset samples with silence : Yes
Delete leading and trailing silent blocks : No
Null samples used in CRC calculations : No
Used interface : Native Win32 interface for Win NT & 2000
Gap handling : Appended to previous track

Used output format : User Defined Encoder
Selected bitrate : 320 kBit/s
Quality : High
Add ID3 tag : No
Command line compressor : C:\Program Files\Exact Audio Copy\Flac\flac.exe
Additional command line options : -8 -T "artist=%a" -T "title=%t" -T "album=%g" -T "date=%y" -T "tracknumber=%n" -T "genre=%m" %s

TOC of the extracted CD

Track | Start | Length | Start sector | End sector
---------------------------------------------------------
1 | 0:00.00 | 3:31.32 | 0 | 15856
2 | 3:31.32 | 3:23.15 | 15857 | 31096
3 | 6:54.47 | 3:38.70 | 31097 | 47516
4 | 10:33.42 | 4:29.58 | 47517 | 67749
5 | 15:03.25 | 3:51.70 | 67750 | 85144
6 | 18:55.20 | 3:38.32 | 85145 | 101526
7 | 22:33.52 | 3:26.13 | 101527 | 116989
8 | 25:59.65 | 3:24.65 | 116990 | 132354
9 | 29:24.55 | 4:41.30 | 132355 | 153459
10 | 34:06.10 | 3:17.42 | 153460 | 168276
11 | 37:23.52 | 4:05.33 | 168277 | 186684
12 | 41:29.10 | 3:38.40 | 186685 | 203074
13 | 45:07.50 | 4:10.50 | 203075 | 221874
14 | 49:18.25 | 3:31.02 | 221875 | 237701
15 | 52:49.27 | 2:46.65 | 237702 | 250216

Track 1

Filename C:\Documents and Settings\MEIHSHA12\My Documents\music convert\Britany Spears\Oops...I Did It Again\01 oops I did it again.wav

Pre-gap length 0:00:02.00

Peak level 96.2 %
Track quality 100.0 %
Test CRC 756F7798
Copy CRC 756F7798
Copy OK

Track 2

Filename C:\Documents and Settings\MEIHSHA12\My Documents\music convert\Britany Spears\Oops...I Did It Again\02 Stronger.wav

Peak level 98.7 %
Track quality 99.9 %
Test CRC C1589D52
Copy CRC C1589D52
Copy OK

Track 3

Filename C:\Documents and Settings\MEIHSHA12\My Documents\music convert\Britany Spears\Oops...I Did It Again\03 Don't go knocking on my door.wav

Peak level 98.7 %
Track quality 100.0 %
Test CRC 020D2A92
Copy CRC 020D2A92
Copy OK

Track 4

Filename C:\Documents and Settings\MEIHSHA12\My Documents\music convert\Britany Spears\Oops...I Did It Again\04 I can't get no satisfaction.wav

Pre-gap length 0:00:24.25

Peak level 100.0 %
Track quality 100.0 %
Test CRC C73FEA4C
Copy CRC C73FEA4C
Copy OK

Track 5

Filename C:\Documents and Settings\MEIHSHA12\My Documents\music convert\Britany Spears\Oops...I Did It Again\05 Don't let me be the last to know.wav

Pre-gap length 0:00:01.20

Peak level 98.8 %
Track quality 100.0 %
Test CRC A53C89A7
Copy CRC A53C89A7
Copy OK

Track 6

Filename C:\Documents and Settings\MEIHSHA12\My Documents\music convert\Britany Spears\Oops...I Did It Again\06 What you see is what you get.wav

Peak level 98.7 %
Track quality 100.0 %
Test CRC 6F2CDB3E
Copy CRC 6F2CDB3E
Copy OK

Track 7

Filename C:\Documents and Settings\MEIHSHA12\My Documents\music convert\Britany Spears\Oops...I Did It Again\07 Lucky.wav

Pre-gap length 0:00:23.27

Peak level 98.7 %
Track quality 100.0 %
Test CRC B2D54B3F
Copy CRC B2D54B3F
Copy OK

Track 8

Filename C:\Documents and Settings\MEIHSHA12\My Documents\music convert\Britany Spears\Oops...I Did It Again\08 One kiss from you.wav

Peak level 98.7 %
Track quality 99.9 %
Test CRC 5C169ECB
Copy CRC 5C169ECB
Copy OK

Track 9

Filename C:\Documents and Settings\MEIHSHA12\My Documents\music convert\Britany Spears\Oops...I Did It Again\09 Where are you now.wav

Pre-gap length 0:00:01.18

Peak level 98.7 %
Track quality 100.0 %
Test CRC 970EB786
Copy CRC 970EB786
Copy OK

Track 10

Filename C:\Documents and Settings\MEIHSHA12\My Documents\music convert\Britany Spears\Oops...I Did It Again\10 Can't make you love me.wav

Pre-gap length 0:00:01.10

Peak level 98.7 %
Track quality 99.9 %
Test CRC 3F3D18C9
Copy CRC 3F3D18C9
Copy OK

Track 11

Filename C:\Documents and Settings\MEIHSHA12\My Documents\music convert\Britany Spears\Oops...I Did It Again\11 When your eyes say it.wav

Peak level 98.7 %
Track quality 100.0 %
Test CRC B24632CC
Copy CRC B24632CC
Copy OK

Track 12

Filename C:\Documents and Settings\MEIHSHA12\My Documents\music convert\Britany Spears\Oops...I Did It Again\12 Girl in the mirror.wav

Peak level 98.7 %
Track quality 100.0 %
Test CRC 8179272A
Copy CRC 8179272A
Copy OK

Track 13

Filename C:\Documents and Settings\MEIHSHA12\My Documents\music convert\Britany Spears\Oops...I Did It Again\13 You got it all.wav

Pre-gap length 0:00:01.03

Peak level 98.7 %
Track quality 100.0 %
Test CRC AD678473
Copy CRC AD678473
Copy OK

Track 14

Filename C:\Documents and Settings\MEIHSHA12\My Documents\music convert\Britany Spears\Oops...I Did It Again\14 Heart.wav

Peak level 98.7 %
Track quality 100.0 %
Test CRC B534C74C
Copy CRC B534C74C
Copy OK

Track 15

Filename C:\Documents and Settings\MEIHSHA12\My Documents\music convert\Britany Spears\Oops...I Did It Again\15 Dear Diary.wav

Pre-gap length 0:00:30.22

Peak level 98.7 %
Track quality 100.0 %
Test CRC F0657096
Copy CRC F0657096
Copy OK

No errors occurred

End of status report
AUDIOCHECKER v2.0 beta (build 457) - by Dester - opdester@freemail.hu
~~~~~~~~~~~~~~~~~~~~~~~~~~~~~~~~~~
-=== DO NOT EDIT THIS FILE! ===-

Path: ...\Britney Spears - Oops I Did It Again [2000] [flac]

01 -=- 01 oops I did it again.flac -=- CDDA (100%)
02 -=- 02 Stronger.flac -=- CDDA (100%)
03 -=- 03 Don't go knocking on my door.flac -=- CDDA (100%)
04 -=- 04 I can't get no satisfaction.flac -=- CDDA (100%)
05 -=- 05 Don't let me be the last to know.flac -=- CDDA (99%)
06 -=- 06 What you see is what you get.flac -=- CDDA (100%)
07 -=- 07 Lucky.flac -=- CDDA (100%)
08 -=- 08 One kiss from you.flac -=- CDDA (99%)
09 -=- 09 Where are you now.flac -=- CDDA (100%)
10 -=- 10 Can't make you love me.flac -=- CDDA (99%)
11 -=- 11 When your eyes say it.flac -=- CDDA (100%)
12 -=- 12 Girl in the mirror.flac -=- CDDA (100%)
13 -=- 13 You got it all.flac -=- CDDA (100%)
14 -=- 14 Heart.flac -=- CDDA (100%)
15 -=- 15 Dear Diary.flac -=- CDDA (100%)

Summary 99,80% CDDA

5705252

Этот торрент недоступен для скачивания без регистрации, однако доступен по публичной magnet-ссылке (источники с публичных трекеров). Перед использованием ссылки прочтите, пожалуйста Пользовательское соглашение, а также как можно дольше оставайтесь на раздаче! Для того, чтобы скачать сам торрент-файл (который видит больше источников), а также для того, чтобы поблагодарить релизера, вам необходимо зарегистрироваться. Если регистрироваться лень - вы можете также попробовать скачать релиз по нашим партнерским ссылкам ниже. Кроме того, зарегистрированным пользователям не показывается всплывающая реклама при скачивании.

[underverse.su].t10542.torrent
Трекер: Зарегистрирован   [ 09.06.2010 16:35 ]  

Статус: проверено (by Паукан at 09.06.2010 16:40)
Поблагодарили: 1 человек
Тип торрента: публичный - доступные источники с открытых трекеров: 
Размер: 388 MB (занимает 0,09 DVDR, для записи нужно 1 болванка DVDR/RW)
 
 
Похожие темы
Форум Тема Автор Торрент Отв. Посл. сооб.
Зарубежная Pop Музыка (Pop) Britney Spears - Life Is A Beach: Live In Miami (2015) [MP3, 320 kbps] 90ytr90
1 | 0

0 | 332

0

08.11.2016 15:51

Зарубежная Pop Музыка (Pop) Britney Spears - Glory [Japanese Limited Edition] (2016) [MP3, 320 kbps] 90ytr90
3 | 1

0 | 437

1

04.11.2016 17:40

Зарубежная Pop Музыка (Pop) Britney Spears - Glory (Japan Tour Edition) (2017) [MP3, 320 kbps CBR] Darkferse
2 | 1

0 | 728

7

31.05.2017 19:46

Архив (популярная музыка) (Pop) Britney Spears - Britney Jean (2013) [MP3, 320 kbps CBR] Бишеп
0 | 0

6 | 1643

11

31.01.2018 19:40

17-Фев-2011 14:46

Топик был перенесен из форума Зарубежная Поп Музыка (Lossless) в форум Архив


[cron robot]
 

Яндекс.Метрика powered by Sphinx


В Н И М А Н И Е
Сайт не распространяет и не хранит электронные версии произведений, а лишь бесплатно и без коммерческой выгоды (не требуя взамен платы,
SMS и т.д.) предоставляет доступ к создаваемому пользователями каталогу ссылок на торрент-файлы, которые содержат только списки хеш-сумм.
Убедительная просьба с жалобами обращаться напрямую к пользователю, разместившему торрент файл.

Вверх