Loading...
Error

(Рор) Britney Spears - Everytime [Single] (Год выпуска диска: 2004) [FLAC (Tracks+.CUE), lossless]

Статистика раздачи
Размер:  166 MB   |    Зарегистрирован:  8 лет   |    Скачан:  3 раза

Полного источника не было: 2 месяца 22 дня

Сидов:  0  |  0 KB/s  ]   Личеров:  0  |  0 KB/s  ]

* - сиды/пиры с внешних источников

   
 
Автор Сообщение

F@ust 

11-Июн-2010 19:08

Britney Spears - Everytime [Single]
Производитель диска: USA
Жанр: Рор
Год выпуска диска: 2004
Аудиокодек: FLAC
Тип рипа: Tracks+.CUE
Битрейт аудио: lossless
Продолжительность: 00:21:11

Tracklist:

01 - Everytime (Album Version)
02 - Everytime (Hi-Bias Radio Remix)
03 - Everytime (Above & Beyond's Radio Mix)
04 - Everytime (The Scumfrog Vocal Mix)
Exact Audio Copy V0.99 prebeta 4 from 23. January 2008

EAC extraction logfile from 16. April 2009, 16:25

Britney Spears / Everytime-(Single)

Used drive : MATSHITADVD-RAM UJ-850S Adapter: 1 ID: 0

Read mode : Secure
Utilize accurate stream : Yes
Defeat audio cache : Yes
Make use of C2 pointers : No

Read offset correction : 102
Overread into Lead-In and Lead-Out : No
Fill up missing offset samples with silence : Yes
Delete leading and trailing silent blocks : No
Null samples used in CRC calculations : Yes
Used interface : Installed external ASPI interface
Gap handling : Appended to previous track

Used output format : User Defined Encoder
Selected bitrate : 320 kBit/s
Quality : High
Add ID3 tag : No
Command line compressor : C:\Program Files\Exact Audio Copy\Flac\flac.exe
Additional command line options : -V -8 -T "artist=%a" -T "title=%t" -T "album=%g" -T "date=%y" -T "tracknumber=%n" -T "genre=%m" %s

TOC of the extracted CD

Track | Start | Length | Start sector | End sector
---------------------------------------------------------
1 | 0:00.00 | 3:53.69 | 0 | 17543
2 | 3:53.69 | 3:31.32 | 17544 | 33400
3 | 7:25.26 | 3:50.45 | 33401 | 50695
4 | 11:15.71 | 9:55.33 | 50696 | 95353

Track 1

Filename D:\Ripai\FLAC\Britney Spears - Everytime-(Single)-2004-DJ_AliuX\01 - Everytime (Album Version).wav

Pre-gap length 0:00:02.00

Peak level 99.8 %
Track quality 100.0 %
Test CRC C117A802
Copy CRC C117A802
Track not present in AccurateRip database
Copy OK

Track 2

Filename D:\Ripai\FLAC\Britney Spears - Everytime-(Single)-2004-DJ_AliuX\02 - Everytime (Hi-Bias Radio Remix).wav

Pre-gap length 0:00:02.66

Peak level 98.8 %
Track quality 100.0 %
Test CRC 4E0FAA6B
Copy CRC 4E0FAA6B
Track not present in AccurateRip database
Copy OK

Track 3

Filename D:\Ripai\FLAC\Britney Spears - Everytime-(Single)-2004-DJ_AliuX\03 - Everytime (Above & Beyond's Radio Mix).wav

Pre-gap length 0:00:02.38

Peak level 98.8 %
Track quality 100.0 %
Test CRC 904CF773
Copy CRC 904CF773
Track not present in AccurateRip database
Copy OK

Track 4

Filename D:\Ripai\FLAC\Britney Spears - Everytime-(Single)-2004-DJ_AliuX\04 - Everytime (The Scumfrog Vocal Mix).wav

Pre-gap length 0:00:02.66

Peak level 98.8 %
Track quality 100.0 %
Test CRC C72E93BB
Copy CRC C72E93BB
Track not present in AccurateRip database
Copy OK

None of the tracks are present in the AccurateRip database

No errors occurred

End of status report
AUDIOCHECKER v2.0 beta (build 457) - by Dester - opdester@freemail.hu
~~~~~~~~~~~~~~~~~~~~~~~~~~~~~~~~~~
-=== DO NOT EDIT THIS FILE! ===-

Path: ...\Britney Spears - Everytime-(Single)-2004-DJ_AliuX

01 -=- 01 - Everytime (Album Version).flac -=- CDDA (100%)
02 -=- 02 - Everytime (Hi-Bias Radio Remix).flac -=- CDDA (100%)
03 -=- 03 - Everytime (Above & Beyond's Radio Mix).flac -=- CDDA (99%)
04 -=- 04 - Everytime (The Scumfrog Vocal Mix).flac -=- CDDA (100%)

Summary 99,75% CDDA

149469156

Этот торрент недоступен для скачивания без регистрации, однако доступен по публичной magnet-ссылке (источники с публичных трекеров). Перед использованием ссылки прочтите, пожалуйста Пользовательское соглашение, а также как можно дольше оставайтесь на раздаче! Для того, чтобы скачать сам торрент-файл (который видит больше источников), а также для того, чтобы поблагодарить релизера, вам необходимо зарегистрироваться. Если регистрироваться лень - вы можете также попробовать скачать релиз по нашим партнерским ссылкам ниже. Кроме того, зарегистрированным пользователям не показывается всплывающая реклама при скачивании.

[underverse.su].t10563.torrent
Трекер: Зарегистрирован   [ 11.06.2010 19:08 ]  

Статус: проверено (by M-i-i-i-ke at 11.06.2010 20:51)
Поблагодарили: пока никто не поблагодарил...
Тип торрента: публичный - доступные источники с открытых трекеров: 
Размер: 166 MB (занимает 0,04 DVDR, для записи нужно 1 болванка DVDR/RW)
 
 
Похожие темы
Форум Тема Автор Торрент Отв. Посл. сооб.
Архив (HQ популярная музыка) (Рор) Britney Spears Chaotic (EP) (2005) [FLAC (Image+.CUE), lossless] F@ust
0 | 0

1 | 1569

1

17.02.2011 14:46

17-Фев-2011 14:46

Топик был перенесен из форума Зарубежная Поп Музыка (Lossless) в форум Архив


[cron robot]
 

Яндекс.Метрика powered by Sphinx


В Н И М А Н И Е
Сайт не распространяет и не хранит электронные версии произведений, а лишь бесплатно и без коммерческой выгоды (не требуя взамен платы,
SMS и т.д.) предоставляет доступ к создаваемому пользователями каталогу ссылок на торрент-файлы, которые содержат только списки хеш-сумм.
Убедительная просьба с жалобами обращаться напрямую к пользователю, разместившему торрент файл.

Вверх