Loading...
Error

(Club) VA - Танцевальный Рай Club Version vol.20 (2010) [FLAC (Image+.CUE), lossless]

Статистика раздачи
Размер:  591 MB   |    Зарегистрирован:  8 лет   |    Скачан:  8 раз

Полного источника не было: 3 года 4 месяца

Сидов:  0  |  0 KB/s  ]   Личеров:  0  |  0 KB/s  ]

* - сиды/пиры с внешних источников

   
 
Автор Сообщение

Bratok Пол:Муж

29-Июн-2010 14:05

VA - Танцевальный Рай Club Version vol.20
Жанр: Dance|Club
Год выпуска: 2010
Аудиокодек: FLAC
Тип рипа: Image+.CUE
Битрейт аудио: lossless
Продолжительность: 01:19:50

Треклист:

01. STEVE AOKI feat. ZUPER BLAHQ / Im InTheHouse [0:03:19.23]
02. Tom Snare / Other city Steve Roberts Remix [0:04:22.36]
03. Angie Be / Boyztronik Radio Edit Master [0:03:35.22]
04. Pakito / Harmony [0:03:31.73]
05. Eric Carter / Unification RLS REMIX RADIO EDIT MASTER [0:03:05.07]
06. Guru Josh & Dj Igor Blaska / Eternity [Rivaz Radio Mix ] [0:03:18.21]
07. Boy George / Amazing Grace [0:03:12.09]
08. Jameerah / All eyes on me [chris jay celebration bootie mix] [0:02:52.11]
09. Wendel Kos Feat Therese / Step Out ( Radio Edit) [0:02:48.46]
10. WILDBOYZ ft AMEERAH / The Sound Of Missing You [0:03:02.62]
11. G&G / One_vision (original_radio_edit) [0:03:46.70]
12. Dim Chris Feat. Amanda Wilson / Sometimes (Original Edit) [0:03:04.18]
13. SANTITO VS BLOCK & CROWN / BACK IT UP (Radio Edit) [0:03:21.36]
14. Desaparecidos / FOLLOW YOU Album Version [0:04:11.63]
15. SAHARA feat. Geo DaSilva / Belezza 2010 [0:03:41.51]
16. RLS feat. SANDRA GODOY / Festa MECS Radio Edit Master [0:03:43.11]
17. Paris Avenue / My Life Is Muzik (Groovenatics Edit) [0:03:06.58]
18. Katerine Avgoustakis / EnjoyTheDay (YvesGaillardMix) [0:02:59.35]
19. Molella / Revolution (DJ DLG Edit) [0:03:25.58]
20. Ricky Salerno / Respect (Original Radio) [0:03:43.11]
21. THE BEATTHIEFS feat LINDY LAYTON / Dub Be Bad [0:05:18.33]
22. DJ LBR feat. DJ KOOL & NAPPY PACO / Get Your Hands Up [0:03:05.61]
23. Technojoe / Shake It Down [0:03:13.29]

Релиз группы:

Exact Audio Copy V0.99 prebeta 5 from 4. May 2009

EAC extraction logfile from 29. June 2010, 17:57

Va / TP Club version 20

Used drive : TSSTcorpCDDVDW SH-S202J Adapter: 0 ID: 0

Read mode : Secure
Utilize accurate stream : Yes
Defeat audio cache : Yes
Make use of C2 pointers : No

Read offset correction : 6
Overread into Lead-In and Lead-Out : No
Fill up missing offset samples with silence : Yes
Delete leading and trailing silent blocks : No
Null samples used in CRC calculations : Yes
Used interface : Native Win32 interface for Win NT & 2000

Used output format : User Defined Encoder
Selected bitrate : 128 kBit/s
Quality : High
Add ID3 tag : No
Command line compressor : C:\Program Files\Exact Audio Copy\Flac\flac.exe
Additional command line options : -8 -V %s

TOC of the extracted CD

Track | Start | Length | Start sector | End sector
---------------------------------------------------------
1 | 0:00.00 | 3:19.23 | 0 | 14947
2 | 3:19.23 | 4:22.36 | 14948 | 34633
3 | 7:41.59 | 3:35.22 | 34634 | 50780
4 | 11:17.06 | 3:31.73 | 50781 | 66678
5 | 14:49.04 | 3:05.07 | 66679 | 80560
6 | 17:54.11 | 3:18.21 | 80561 | 95431
7 | 21:12.32 | 3:12.09 | 95432 | 109840
8 | 24:24.41 | 2:52.11 | 109841 | 122751
9 | 27:16.52 | 2:48.46 | 122752 | 135397
10 | 30:05.23 | 3:02.62 | 135398 | 149109
11 | 33:08.10 | 3:46.70 | 149110 | 166129
12 | 36:55.05 | 3:04.18 | 166130 | 179947
13 | 39:59.23 | 3:21.36 | 179948 | 195058
14 | 43:20.59 | 4:11.63 | 195059 | 213946
15 | 47:32.47 | 3:41.51 | 213947 | 230572
16 | 51:14.23 | 3:43.11 | 230573 | 247308
17 | 54:57.34 | 3:06.58 | 247309 | 261316
18 | 58:04.17 | 2:59.35 | 261317 | 274776
19 | 61:03.52 | 3:25.58 | 274777 | 290209
20 | 64:29.35 | 3:43.11 | 290210 | 306945
21 | 68:12.46 | 5:18.33 | 306946 | 330828
22 | 73:31.04 | 3:05.61 | 330829 | 344764
23 | 76:36.65 | 3:13.29 | 344765 | 359268

Range status and errors

Selected range

Filename E:\музыка на торент 2\tancevalnyi rai club version 20\Va - TP Club version 20.wav

Peak level 100.0 %
Range quality 100.0 %
Test CRC CD3A2A80
Copy CRC CD3A2A80
Copy OK

No errors occurred

AccurateRip summary
Track 1 not present in database
Track 2 not present in database
Track 3 not present in database
Track 4 not present in database
Track 5 not present in database
Track 6 not present in database
Track 7 not present in database
Track 8 not present in database
Track 9 not present in database
Track 10 not present in database
Track 11 not present in database
Track 12 not present in database
Track 13 not present in database
Track 14 not present in database
Track 15 not present in database
Track 16 not present in database
Track 17 not present in database
Track 18 not present in database
Track 19 not present in database
Track 20 not present in database
Track 21 not present in database
Track 22 not present in database
Track 23 not present in database
None of the tracks are present in the AccurateRip database

End of status report
AUDIOCHECKER v2.0 beta (build 457) - by Dester - opdester@freemail.hu
~~~~~~~~~~~~~~~~~~~~~~~~~~~~~~~~~~
-=== НЕ РЕДАКТИРУЙТЕ ЭТОТ ФАЙЛ! ===-

Путь: ...\tancevalnyi rai club version 20

1 -=- Va - TP Club version 20.flac -=- CDDA (100%)

13981092

Этот торрент недоступен для скачивания без регистрации, однако доступен по публичной magnet-ссылке (источники с публичных трекеров). Перед использованием ссылки прочтите, пожалуйста Пользовательское соглашение, а также как можно дольше оставайтесь на раздаче! Для того, чтобы скачать сам торрент-файл (который видит больше источников), а также для того, чтобы поблагодарить релизера, вам необходимо зарегистрироваться. Если регистрироваться лень - вы можете также попробовать скачать релиз по нашим партнерским ссылкам ниже. Кроме того, зарегистрированным пользователям не показывается всплывающая реклама при скачивании.

[underverse.su].t10798.torrent
Трекер: Зарегистрирован   [ 29.06.2010 14:05 ]  

Статус: проверено (by ZondeR at 29.06.2010 14:14)
Поблагодарили: 1 человек
Тип торрента: публичный - доступные источники с открытых трекеров: 
Размер: 591 MB (занимает 0,13 DVDR, для записи нужно 1 болванка DVDR/RW)
 
 
Похожие темы
Форум Тема Автор Торрент Отв. Посл. сооб.
Сборники Pop, Disco, Dance (Club) VA - Клубная атмосфера. Зарядись хитами - 3 (2015) [MP3, 320 kbps CBR] bredd82
0 | 1

0 | 883

54

05.04.2015 07:14

Архив (популярная музыка) (Club) VA - Лучшая 100ка Record: Взорви танцпол 7 50 / 50 (2012) [MP3, 256 kbps] 90ytr90
0 | 0

1 | 1214

36

31.01.2018 19:45

Архив (HQ электронная музыка) (Club) VA - Ночная Super Dискотека №9 (2010) [FLAC (Image+.CUE), lossless ] Bratok
0 | 0

1 | 1157

12

31.01.2018 21:16

31-Янв-2018 21:16

Топик был перенесен из форума Сборники в форум Архив (HQ электронная музыка)


[cron robot]
 

Яндекс.Метрика powered by Sphinx


В Н И М А Н И Е
Сайт не распространяет и не хранит электронные версии произведений, а лишь бесплатно и без коммерческой выгоды (не требуя взамен платы,
SMS и т.д.) предоставляет доступ к создаваемому пользователями каталогу ссылок на торрент-файлы, которые содержат только списки хеш-сумм.
Убедительная просьба с жалобами обращаться напрямую к пользователю, разместившему торрент файл.

Вверх