Loading...
Error

(Club) VA - Ночная Super Dискотека №9 (2010) [FLAC (Image+.CUE), lossless ]

Статистика раздачи
Размер:  558 MB   |    Зарегистрирован:  8 лет   |    Скачан:  12 раз

Полного источника не было: 3 года 4 месяца

Сидов:  0  |  0 KB/s  ]   Личеров:  0  |  0 KB/s  ]

* - сиды/пиры с внешних источников

   
 
Автор Сообщение

Bratok Пол:Муж

19-Июл-2010 17:57

VA - Ночная Super Dискотека №9
Жанр: Dance|Club
Год выпуска: 2010
Аудиокодек: FLAC
Тип рипа: Image+.CUE
Битрейт аудио: lossless
Продолжительность: 01:15:05

Треклист:
01. Eternity (Da Brozz Radio Mix / Eternity (Da Brozz Radio Mix) [0:03:35.22]
02. Clubshot Feat. Joanna Rays / No Matter (Jeremy Kalls Radio Edit) [0:03:14.52]
03. Dj Assad Feat. Vincent Brasse / For Your Eyes [0:03:37.58]
04. Remady P&R / No Superstar (Full Vocal Radio Mix) [0:03:43.68]
05. Tom Snare / Other City ( Vocal Mix Edit EN) [0:02:57.26]
06. Hold Up / Stop Me Now [0:03:04.44]
07. Molella Revolution (DJ's From Mars FM Remix / MOLELLA Revolution (DJ's From Mars FM Remix) [0:03:28.70]
08. Technojoe_shakeitdown_edit [0:03:17.45]
09. Angie be Boyztronik / ANGIE BE Boyztronik Radio Edit Master [0:03:37.27]
10. Steve Aoki feat. [[[ZUPER BLAHQ]]] / I'M In The House [0:03:21.03]
11. Wendel Kos Feat Therese / Step Out ( Radio Edit) [0:02:52.07]
12. Boy George / Amazing Grace (Radio Edit) [0:03:22.70]
13. Mario Lopez Sadness / MARIO LOPEZ Sadness [0:03:27.25]
14. Santito vs Block & Crown / Back it up (Radio Edit) [0:03:23.72]
15. Supernature feat. Dax Riders (Single version / Supernature feat. Dax Riders (Single version) [0:03:51.03]
16. Celia / My Story (C-NRG Radio Remix) [0:03:42.51]
17. Paris Avenue My Life Is Muzik / PARIS AVENUE My Life Is Muzik [0:03:09.44]
18. OliverDeVille_wondergee [0:03:03.28]
19. Scotty feat. Tesz Millan / Let The Beat Hit Em (Edit Mix) [0:03:54.52]
20. Guenta K. Pussy Killer / GUENTA K. Pussy Killer [0:03:25.34]
21. Electric Dance Theatre / ELECTRIC DANCE THEATRE Popped (Radio Edit) [0:03:20.17]
22. One Beat Away Max Vangelli Edit / One Beat Away Max Vangelli Edit [0:03:33.56]


Релиз группы:

Exact Audio Copy V0.99 prebeta 5 from 4. May 2009

EAC extraction logfile from 19. July 2010, 21:06

Va / Night Superdiskoteka9

Used drive : TSSTcorpCDDVDW SH-S202J Adapter: 0 ID: 0

Read mode : Secure
Utilize accurate stream : Yes
Defeat audio cache : Yes
Make use of C2 pointers : No

Read offset correction : 6
Overread into Lead-In and Lead-Out : No
Fill up missing offset samples with silence : Yes
Delete leading and trailing silent blocks : No
Null samples used in CRC calculations : Yes
Used interface : Native Win32 interface for Win NT & 2000

Used output format : User Defined Encoder
Selected bitrate : 768 kBit/s
Quality : High
Add ID3 tag : No
Command line compressor : C:\Program Files\Exact Audio Copy\Flac\flac.exe
Additional command line options : -T "DATE=%y" -T "GENRE=%m" -8 -V %s

TOC of the extracted CD

Track | Start | Length | Start sector | End sector
---------------------------------------------------------
1 | 0:00.00 | 3:35.22 | 0 | 16146
2 | 3:35.22 | 3:14.52 | 16147 | 30748
3 | 6:49.74 | 3:37.58 | 30749 | 47081
4 | 10:27.57 | 3:43.68 | 47082 | 63874
5 | 14:11.50 | 2:57.26 | 63875 | 77175
6 | 17:09.01 | 3:04.44 | 77176 | 91019
7 | 20:13.45 | 3:28.70 | 91020 | 106689
8 | 23:42.40 | 3:17.45 | 106690 | 121509
9 | 27:00.10 | 3:37.27 | 121510 | 137811
10 | 30:37.37 | 3:21.03 | 137812 | 152889
11 | 33:58.40 | 2:52.07 | 152890 | 165796
12 | 36:50.47 | 3:22.70 | 165797 | 181016
13 | 40:13.42 | 3:27.25 | 181017 | 196566
14 | 43:40.67 | 3:23.72 | 196567 | 211863
15 | 47:04.64 | 3:51.03 | 211864 | 229191
16 | 50:55.67 | 3:42.51 | 229192 | 245892
17 | 54:38.43 | 3:09.44 | 245893 | 260111
18 | 57:48.12 | 3:03.28 | 260112 | 273864
19 | 60:51.40 | 3:54.52 | 273865 | 291466
20 | 64:46.17 | 3:25.34 | 291467 | 306875
21 | 68:11.51 | 3:20.17 | 306876 | 321892
22 | 71:31.68 | 3:33.56 | 321893 | 337923

Range status and errors

Selected range

Filename E:\музыка на торент 2\Night Superdiskoteka9\Va - Night Superdiskoteka9.wav

Peak level 98.8 %
Range quality 100.0 %
Test CRC 130390D0
Copy CRC 130390D0
Copy OK

No errors occurred

AccurateRip summary
Track 1 not present in database
Track 2 not present in database
Track 3 not present in database
Track 4 not present in database
Track 5 not present in database
Track 6 not present in database
Track 7 not present in database
Track 8 not present in database
Track 9 not present in database
Track 10 not present in database
Track 11 not present in database
Track 12 not present in database
Track 13 not present in database
Track 14 not present in database
Track 15 not present in database
Track 16 not present in database
Track 17 not present in database
Track 18 not present in database
Track 19 not present in database
Track 20 not present in database
Track 21 not present in database
Track 22 not present in database
None of the tracks are present in the AccurateRip database

End of status report

Этот торрент недоступен для скачивания без регистрации, однако доступен по публичной magnet-ссылке (источники с публичных трекеров). Перед использованием ссылки прочтите, пожалуйста Пользовательское соглашение, а также как можно дольше оставайтесь на раздаче! Для того, чтобы скачать сам торрент-файл (который видит больше источников), а также для того, чтобы поблагодарить релизера, вам необходимо зарегистрироваться. Если регистрироваться лень - вы можете также попробовать скачать релиз по нашим партнерским ссылкам ниже. Кроме того, зарегистрированным пользователям не показывается всплывающая реклама при скачивании.

[underverse.su].t11091.torrent
Трекер: Зарегистрирован   [ 19.07.2010 17:57 ]  

Статус: проверено (by Bratok at 19.07.2010 19:15)
Поблагодарили: пока никто не поблагодарил...
Тип торрента: публичный - доступные источники с открытых трекеров: 
Размер: 558 MB (занимает 0,12 DVDR, для записи нужно 1 болванка DVDR/RW)
 
 
Похожие темы
Форум Тема Автор Торрент Отв. Посл. сооб.
Сборники Pop, Disco, Dance (Club) VA - Клубная атмосфера. Зарядись хитами - 3 (2015) [MP3, 320 kbps CBR] bredd82
0 | 1

0 | 883

54

05.04.2015 07:14

Архив (популярная музыка) (Club) VA - Лучшая 100ка Record: Взорви танцпол 7 50 / 50 (2012) [MP3, 256 kbps] 90ytr90
0 | 0

1 | 1214

36

31.01.2018 19:45

Архив (HQ электронная музыка) (Club) VA - Танцевальный Рай Club Version vol.20 (2010) [FLAC (Image+.CUE), lossless] Bratok
0 | 0

1 | 1761

8

31.01.2018 21:16

31-Янв-2018 21:16

Топик был перенесен из форума Сборники в форум Архив (HQ электронная музыка)


[cron robot]
 

Яндекс.Метрика powered by Sphinx


В Н И М А Н И Е
Сайт не распространяет и не хранит электронные версии произведений, а лишь бесплатно и без коммерческой выгоды (не требуя взамен платы,
SMS и т.д.) предоставляет доступ к создаваемому пользователями каталогу ссылок на торрент-файлы, которые содержат только списки хеш-сумм.
Убедительная просьба с жалобами обращаться напрямую к пользователю, разместившему торрент файл.

Вверх