Loading...
Error

(Авторская песня) Владимир Высоцкий - Grand Collection. Часть 1 / Часть 2 (2004) [FLAC (Tracks+.CUE), lossless]

Статистика раздачи
Размер:  874 MB   |    Зарегистрирован:  6 лет 6 месяцев   |    Скачан:  12 раз
Сидов:  1  |  0 KB/s  ]   Личеров:  0  |  0 KB/s  ]

* - сиды/пиры с внешних источников

   
 
Автор Сообщение

garry Пол:Муж

05-Янв-2012 18:01

Владимир Высоцкий - Grand Collection. Часть 1 / Часть 2

Жанр: Авторская песня
Год выпуска: 2004
Производитель диска: Россия, Квадро-Диск
Аудиокодек: FLAC
Тип рипа: Tracks+.CUE
Битрейт аудио: lossless
Продолжительность: 01:19:46 / 01:14:05
01 - Я не люблю
02 - Бег иноходца
03 - Охота на волков
04 - Райские яблоки
05 - Притча о правде и лжи
06 - Песня Бродского
07 - Две судьбы
08 - Песня о вещей Кассандре
09 - Прерванный полёт
10 - О фатальных датах и цифрах
11 - ''Корабли постоят - и ложатся на курс...''
12 - Здесь вам не равнина
13 - Песня о друге
14 - ''Ну вот, исчезла дрожь в руках...''
15 - Серебряные струны
16 - ''Так оно и есть...''
17 - Банька по-белому
18 - Банька по-черному
19 - Моя цыганская
20 - Кони привередливые
21 - Очи черные. I. Погоня
22 - Очи черные. II. Старый дом
Exact Audio Copy V1.0 beta 3 from 29. August 2011

EAC extraction logfile from 1. January 2012, 16:05

Владимир Высоцкий / Grand Collection. Часть 1

Used drive : SONY CD-RW CRX230ED Adapter: 1 ID: 0

Read mode : Secure
Utilize accurate stream : Yes
Defeat audio cache : Yes
Make use of C2 pointers : No

Read offset correction : 6
Overread into Lead-In and Lead-Out : No
Fill up missing offset samples with silence : Yes
Delete leading and trailing silent blocks : No
Null samples used in CRC calculations : Yes
Used interface : Native Win32 interface for Win NT & 2000
Gap handling : Appended to previous track

Used output format : User Defined Encoder
Selected bitrate : 1024 kBit/s
Quality : High
Add ID3 tag : No
Command line compressor : C:\Program Files (x86)\Exact Audio Copy\Flac\flac.exe
Additional command line options : -V -8 -T "Genre=%genre%" -T "Artist=%artist%" -T "Title=%title%" -T "Album=%albumtitle%" -T "Date=%year%" -T "Tracknumber=%tracknr%" -T "Comment=%comment%" %source%

TOC of the extracted CD

Track | Start | Length | Start sector | End sector
---------------------------------------------------------
1 | 0:00.00 | 2:01.36 | 0 | 9110
2 | 2:01.36 | 2:30.31 | 9111 | 20391
3 | 4:31.67 | 3:11.05 | 20392 | 34721
4 | 7:42.72 | 5:49.42 | 34722 | 60938
5 | 13:32.39 | 5:01.55 | 60939 | 83568
6 | 18:34.19 | 2:20.49 | 83569 | 94117
7 | 20:54.68 | 7:18.09 | 94118 | 126976
8 | 28:13.02 | 2:13.41 | 126977 | 136992
9 | 30:26.43 | 4:40.37 | 136993 | 158029
10 | 35:07.05 | 2:09.60 | 158030 | 167764
11 | 37:16.65 | 2:43.74 | 167765 | 180063
12 | 40:00.64 | 2:47.72 | 180064 | 192660
13 | 42:48.61 | 2:57.27 | 192661 | 205962
14 | 45:46.13 | 2:55.69 | 205963 | 219156
15 | 48:42.07 | 2:22.55 | 219157 | 229861
16 | 51:04.62 | 2:00.49 | 229862 | 238910
17 | 53:05.36 | 8:09.49 | 238911 | 275634
18 | 61:15.10 | 2:58.44 | 275635 | 289028
19 | 64:13.54 | 4:35.25 | 289029 | 309678
20 | 68:49.04 | 5:23.19 | 309679 | 333922
21 | 74:12.23 | 2:58.22 | 333923 | 347294
22 | 77:10.45 | 2:47.11 | 347295 | 359830

Track 1

Filename C:\Users\gari\Documents\!Temp\01 - Я не люблю.wav

Pre-gap length 0:00:02.00

Peak level 89.1 %
Extraction speed 1.1 X
Track quality 99.9 %
Test CRC 011E4103
Copy CRC 011E4103
Track not present in AccurateRip database
Copy OK

Track 2

Filename C:\Users\gari\Documents\!Temp\02 - Бег иноходца.wav

Peak level 89.1 %
Extraction speed 1.3 X
Track quality 99.9 %
Test CRC 87FC182D
Copy CRC 87FC182D
Track not present in AccurateRip database
Copy OK

Track 3

Filename C:\Users\gari\Documents\!Temp\03 - Охота на волков.wav

Peak level 84.1 %
Extraction speed 2.1 X
Track quality 100.0 %
Test CRC 9441D48E
Copy CRC 9441D48E
Track not present in AccurateRip database
Copy OK

Track 4

Filename C:\Users\gari\Documents\!Temp\04 - Райские яблоки.wav

Peak level 89.1 %
Extraction speed 1.8 X
Track quality 99.9 %
Test CRC 99301B57
Copy CRC 99301B57
Track not present in AccurateRip database
Copy OK

Track 5

Filename C:\Users\gari\Documents\!Temp\05 - Притча о правде и лжи.wav

Peak level 94.2 %
Extraction speed 2.2 X
Track quality 100.0 %
Test CRC E7B25F6B
Copy CRC E7B25F6B
Track not present in AccurateRip database
Copy OK

Track 6

Filename C:\Users\gari\Documents\!Temp\06 - Песня Бродского.wav

Peak level 91.2 %
Extraction speed 2.0 X
Track quality 100.0 %
Test CRC 1EC1D99A
Copy CRC 1EC1D99A
Track not present in AccurateRip database
Copy OK

Track 7

Filename C:\Users\gari\Documents\!Temp\07 - Две судьбы.wav

Peak level 98.8 %
Extraction speed 2.3 X
Track quality 100.0 %
Test CRC 8B41BB3A
Copy CRC 8B41BB3A
Track not present in AccurateRip database
Copy OK

Track 8

Filename C:\Users\gari\Documents\!Temp\08 - Песня о вещей Кассандре.wav

Peak level 89.1 %
Extraction speed 1.9 X
Track quality 100.0 %
Test CRC BAE6C1FA
Copy CRC BAE6C1FA
Track not present in AccurateRip database
Copy OK

Track 9

Filename C:\Users\gari\Documents\!Temp\09 - Прерванный полёт.wav

Peak level 98.8 %
Extraction speed 1.6 X
Track quality 99.9 %
Test CRC 0C5E995A
Copy CRC 0C5E995A
Track not present in AccurateRip database
Copy OK

Track 10

Filename C:\Users\gari\Documents\!Temp\10 - О фатальных датах и цифрах.wav

Peak level 89.1 %
Extraction speed 1.2 X
Track quality 99.9 %
Test CRC D68B8084
Copy CRC D68B8084
Track not present in AccurateRip database
Copy OK

Track 11

Filename C:\Users\gari\Documents\!Temp\11 - ''Корабли постоят - и ложатся на курс...''.wav

Peak level 98.8 %
Extraction speed 1.3 X
Track quality 99.9 %
Test CRC 847AB00B
Copy CRC 847AB00B
Track not present in AccurateRip database
Copy OK

Track 12

Filename C:\Users\gari\Documents\!Temp\12 - Здесь вам не равнина.wav

Peak level 89.1 %
Extraction speed 1.3 X
Track quality 99.9 %
Test CRC 4694975E
Copy CRC 4694975E
Track not present in AccurateRip database
Copy OK

Track 13

Filename C:\Users\gari\Documents\!Temp\13 - Песня о друге.wav

Peak level 92.2 %
Extraction speed 2.1 X
Track quality 100.0 %
Test CRC B0E73F94
Copy CRC B0E73F94
Track not present in AccurateRip database
Copy OK

Track 14

Filename C:\Users\gari\Documents\!Temp\14 - ''Ну вот, исчезла дрожь в руках...''.wav

Peak level 89.1 %
Extraction speed 1.4 X
Track quality 99.9 %
Test CRC 12602840
Copy CRC 12602840
Track not present in AccurateRip database
Copy OK

Track 15

Filename C:\Users\gari\Documents\!Temp\15 - Серебряные струны.wav

Peak level 89.1 %
Extraction speed 1.2 X
Track quality 99.9 %
Test CRC AAE307F3
Copy CRC AAE307F3
Track not present in AccurateRip database
Copy OK

Track 16

Filename C:\Users\gari\Documents\!Temp\16 - ''Так оно и есть...''.wav

Peak level 98.8 %
Extraction speed 1.9 X
Track quality 100.0 %
Test CRC 457AC940
Copy CRC 457AC940
Track not present in AccurateRip database
Copy OK

Track 17

Filename C:\Users\gari\Documents\!Temp\17 - Банька по-белому.wav

Peak level 98.8 %
Extraction speed 2.3 X
Track quality 100.0 %
Test CRC 9C73BD3E
Copy CRC 9C73BD3E
Track not present in AccurateRip database
Copy OK

Track 18

Filename C:\Users\gari\Documents\!Temp\18 - Банька по-черному.wav

Peak level 98.8 %
Extraction speed 1.4 X
Track quality 99.9 %
Test CRC F693F3CA
Copy CRC F693F3CA
Track not present in AccurateRip database
Copy OK

Track 19

Filename C:\Users\gari\Documents\!Temp\19 - Моя цыганская.wav

Peak level 89.1 %
Extraction speed 2.2 X
Track quality 100.0 %
Test CRC B015B236
Copy CRC B015B236
Track not present in AccurateRip database
Copy OK

Track 20

Filename C:\Users\gari\Documents\!Temp\20 - Кони привередливые.wav

Peak level 89.0 %
Extraction speed 2.3 X
Track quality 100.0 %
Test CRC 82C69DEE
Copy CRC 82C69DEE
Track not present in AccurateRip database
Copy OK

Track 21

Filename C:\Users\gari\Documents\!Temp\21 - Очи черные. I. Погоня.wav

Peak level 98.8 %
Extraction speed 1.4 X
Track quality 99.9 %
Test CRC 98147160
Copy CRC 98147160
Track not present in AccurateRip database
Copy OK

Track 22

Filename C:\Users\gari\Documents\!Temp\22 - Очи черные. II. Старый дом.wav

Peak level 98.8 %
Extraction speed 2.0 X
Track quality 100.0 %
Test CRC 715F0944
Copy CRC 715F0944
Track not present in AccurateRip database
Copy OK

None of the tracks are present in the AccurateRip database

No errors occurred

End of status report

==== Log checksum 116BA954F9C79DA89B9AB04BA79444A525BED87A70F61B496C4E65101623A697 ====
01 - ''Здесь лапы у елей дрожат на весу…''
02 - Баллада о Любви
03 - Дом хрустальный
04 - Ноль семь
05 - Скалолазка
06 - Москва - Одесса
07 - Песня о Судьбе
08 - ''Сыт я по горло, до подбородка…''
09 - Лукоморья больше нет
10 - Песня-сказка о нечисти
11 - Братские могилы
12 - Сыновья уходят в бой
13 - Песня самолета-истребителя
14 - Натянутый канат
15 - Песня о госпитале
16 - Тот, который не стрелял
17 - Случай в ресторане
18 - ''Мой друг уедет в Магадан…''
19 - Парус
20 - Спасите наши души
21 - Я из дела ушел
22 - ''У меня было сорок фамилий…''
23 - ''Передо мной любой факир - ну просто карлик…''
24 - ''За меня невеста отрыдает честно…''
25 - Весна еще в начале
26 - Инструкция перед поездкой за рубеж, или Полчаса в месткоме
27 - Песенка о переселении душ
28 - Песенка ни про что, или Что случилось в Африке
29 - Утренняя гимнастика
Exact Audio Copy V1.0 beta 3 from 29. August 2011

EAC extraction logfile from 1. January 2012, 19:16

Владимир Высоцкий / Grand Collection. Часть 2

Used drive : SONY CD-RW CRX230ED Adapter: 1 ID: 0

Read mode : Secure
Utilize accurate stream : Yes
Defeat audio cache : Yes
Make use of C2 pointers : No

Read offset correction : 6
Overread into Lead-In and Lead-Out : No
Fill up missing offset samples with silence : Yes
Delete leading and trailing silent blocks : No
Null samples used in CRC calculations : Yes
Used interface : Native Win32 interface for Win NT & 2000
Gap handling : Appended to previous track

Used output format : User Defined Encoder
Selected bitrate : 1024 kBit/s
Quality : High
Add ID3 tag : No
Command line compressor : C:\Program Files (x86)\Exact Audio Copy\Flac\flac.exe
Additional command line options : -V -8 -T "Genre=%genre%" -T "Artist=%artist%" -T "Title=%title%" -T "Album=%albumtitle%" -T "Date=%year%" -T "Tracknumber=%tracknr%" -T "Comment=%comment%" %source%

TOC of the extracted CD

Track | Start | Length | Start sector | End sector
---------------------------------------------------------
1 | 0:00.00 | 3:34.43 | 0 | 16092
2 | 3:34.43 | 6:18.00 | 16093 | 44442
3 | 9:52.43 | 2:14.54 | 44443 | 54546
4 | 12:07.22 | 2:28.09 | 54547 | 65655
5 | 14:35.31 | 1:38.47 | 65656 | 73052
6 | 16:14.03 | 2:36.25 | 73053 | 84777
7 | 18:50.28 | 4:00.09 | 84778 | 102786
8 | 22:50.37 | 0:55.15 | 102787 | 106926
9 | 23:45.52 | 4:26.29 | 106927 | 126905
10 | 28:12.06 | 2:48.67 | 126906 | 139572
11 | 31:00.73 | 1:16.08 | 139573 | 145280
12 | 32:17.06 | 2:31.38 | 145281 | 156643
13 | 34:48.44 | 3:25.39 | 156644 | 172057
14 | 38:14.08 | 3:19.70 | 172058 | 187052
15 | 41:34.03 | 1:06.68 | 187053 | 192070
16 | 42:40.71 | 3:02.73 | 192071 | 205793
17 | 45:43.69 | 1:53.40 | 205794 | 214308
18 | 47:37.34 | 2:33.51 | 214309 | 225834
19 | 50:11.10 | 1:17.45 | 225835 | 231654
20 | 51:28.55 | 3:55.66 | 231655 | 249345
21 | 55:24.46 | 2:17.31 | 249346 | 259651
22 | 57:42.02 | 1:02.68 | 259652 | 264369
23 | 58:44.70 | 1:15.12 | 264370 | 270006
24 | 60:00.07 | 2:03.26 | 270007 | 279257
25 | 62:03.33 | 2:09.49 | 279258 | 288981
26 | 64:13.07 | 4:35.53 | 288982 | 309659
27 | 68:48.60 | 2:08.10 | 309660 | 319269
28 | 70:56.70 | 1:49.30 | 319270 | 327474
29 | 72:46.25 | 1:33.11 | 327475 | 334460

Track 1

Filename C:\Users\gari\Documents\!Temp\01 - ''Здесь лапы у елей дрожат на весу…''.wav

Pre-gap length 0:00:02.00

Peak level 89.1 %
Extraction speed 5.2 X
Track quality 100.0 %
Test CRC 3DCE2EBF
Copy CRC 3DCE2EBF
Cannot be verified as accurate (confidence 2) [248B82CF], AccurateRip returned [44921460] (AR v2)
Copy OK

Track 2

Filename C:\Users\gari\Documents\!Temp\02 - Баллада о Любви.wav

Peak level 89.1 %
Extraction speed 6.0 X
Track quality 100.0 %
Test CRC 220D12B4
Copy CRC 220D12B4
Cannot be verified as accurate (confidence 2) [BC5CCC97], AccurateRip returned [33F9662B] (AR v2)
Copy OK

Track 3

Filename C:\Users\gari\Documents\!Temp\03 - Дом хрустальный.wav

Peak level 91.4 %
Extraction speed 5.7 X
Track quality 100.0 %
Test CRC 491F41B5
Copy CRC 491F41B5
Cannot be verified as accurate (confidence 2) [6AFB6E50], AccurateRip returned [EDF3A499] (AR v2)
Copy OK

Track 4

Filename C:\Users\gari\Documents\!Temp\04 - Ноль семь.wav

Peak level 98.8 %
Extraction speed 6.0 X
Track quality 100.0 %
Test CRC 792AA3C3
Copy CRC 792AA3C3
Cannot be verified as accurate (confidence 2) [0BBAD4F5], AccurateRip returned [0CC1B44D] (AR v2)
Copy OK

Track 5

Filename C:\Users\gari\Documents\!Temp\05 - Скалолазка.wav

Peak level 98.8 %
Extraction speed 3.8 X
Track quality 99.8 %
Test CRC 8C52FE6C
Copy CRC 8C52FE6C
Cannot be verified as accurate (confidence 2) [65232B2D], AccurateRip returned [662FDD16] (AR v2)
Copy OK

Track 6

Filename C:\Users\gari\Documents\!Temp\06 - Москва - Одесса.wav

Peak level 98.8 %
Extraction speed 4.8 X
Track quality 99.9 %
Test CRC AEE68DD0
Copy CRC AEE68DD0
Cannot be verified as accurate (confidence 2) [AACD263C], AccurateRip returned [C594FB4C] (AR v2)
Copy OK

Track 7

Filename C:\Users\gari\Documents\!Temp\07 - Песня о Судьбе.wav

Peak level 98.8 %
Extraction speed 7.1 X
Track quality 100.0 %
Test CRC 3E58BA7E
Copy CRC 3E58BA7E
Cannot be verified as accurate (confidence 2) [4AA657DF], AccurateRip returned [68FCD20B] (AR v2)
Copy OK

Track 8

Filename C:\Users\gari\Documents\!Temp\08 - ''Сыт я по горло, до подбородка…''.wav

Peak level 98.8 %
Extraction speed 5.2 X
Track quality 100.0 %
Test CRC 6BF6625A
Copy CRC 6BF6625A
Cannot be verified as accurate (confidence 2) [DA6C3600], AccurateRip returned [A70B4DDD] (AR v2)
Copy OK

Track 9

Filename C:\Users\gari\Documents\!Temp\09 - Лукоморья больше нет.wav

Peak level 98.8 %
Extraction speed 7.7 X
Track quality 100.0 %
Test CRC F4CCB77A
Copy CRC F4CCB77A
Cannot be verified as accurate (confidence 2) [0E076006], AccurateRip returned [0E0E77D8] (AR v2)
Copy OK

Track 10

Filename C:\Users\gari\Documents\!Temp\10 - Песня-сказка о нечисти.wav

Peak level 98.8 %
Extraction speed 7.5 X
Track quality 100.0 %
Test CRC 60262E4E
Copy CRC 60262E4E
Cannot be verified as accurate (confidence 2) [21565EFB], AccurateRip returned [82D8FFA7] (AR v2)
Copy OK

Track 11

Filename C:\Users\gari\Documents\!Temp\11 - Братские могилы.wav

Peak level 98.8 %
Extraction speed 6.3 X
Track quality 100.0 %
Test CRC 143E9578
Copy CRC 143E9578
Cannot be verified as accurate (confidence 2) [4084D064], AccurateRip returned [613F23D6] (AR v2)
Copy OK

Track 12

Filename C:\Users\gari\Documents\!Temp\12 - Сыновья уходят в бой.wav

Peak level 98.8 %
Extraction speed 7.6 X
Track quality 100.0 %
Test CRC E562E1A8
Copy CRC E562E1A8
Track not present in AccurateRip database
Copy OK

Track 13

Filename C:\Users\gari\Documents\!Temp\13 - Песня самолета-истребителя.wav

Peak level 98.8 %
Extraction speed 6.4 X
Track quality 99.9 %
Test CRC 2A0060B6
Copy CRC 2A0060B6
Cannot be verified as accurate (confidence 2) [55EED839], AccurateRip returned [CE6BA2A9] (AR v2)
Copy OK

Track 14

Filename C:\Users\gari\Documents\!Temp\14 - Натянутый канат.wav

Peak level 92.3 %
Extraction speed 8.3 X
Track quality 100.0 %
Test CRC CA54DEFD
Copy CRC CA54DEFD
Cannot be verified as accurate (confidence 2) [5CED3273], AccurateRip returned [53F5B52E] (AR v2)
Copy OK

Track 15

Filename C:\Users\gari\Documents\!Temp\15 - Песня о госпитале.wav

Peak level 98.8 %
Extraction speed 6.5 X
Track quality 100.0 %
Test CRC 978F542C
Copy CRC 978F542C
Cannot be verified as accurate (confidence 2) [35FE3E5B], AccurateRip returned [37FB2CFE] (AR v2)
Copy OK

Track 16

Filename C:\Users\gari\Documents\!Temp\16 - Тот, который не стрелял.wav

Peak level 94.6 %
Extraction speed 8.7 X
Track quality 100.0 %
Test CRC 0A4B3B2B
Copy CRC 0A4B3B2B
Cannot be verified as accurate (confidence 2) [1138480E], AccurateRip returned [88AF5379] (AR v2)
Copy OK

Track 17

Filename C:\Users\gari\Documents\!Temp\17 - Случай в ресторане.wav

Peak level 98.8 %
Extraction speed 5.4 X
Track quality 99.9 %
Test CRC 8BBBEA56
Copy CRC 8BBBEA56
Cannot be verified as accurate (confidence 2) [5570F7AB], AccurateRip returned [5E5A3EE0] (AR v2)
Copy OK

Track 18

Filename C:\Users\gari\Documents\!Temp\18 - ''Мой друг уедет в Магадан…''.wav

Peak level 89.1 %
Extraction speed 6.2 X
Track quality 99.9 %
Test CRC 46832189
Copy CRC 46832189
Cannot be verified as accurate (confidence 2) [8A3FBF51], AccurateRip returned [EFA8DDAB] (AR v2)
Copy OK

Track 19

Filename C:\Users\gari\Documents\!Temp\19 - Парус.wav

Peak level 98.8 %
Extraction speed 7.4 X
Track quality 100.0 %
Test CRC 5901AF2C
Copy CRC 5901AF2C
Cannot be verified as accurate (confidence 2) [FF860869], AccurateRip returned [678CB60D] (AR v2)
Copy OK

Track 20

Filename C:\Users\gari\Documents\!Temp\20 - Спасите наши души.wav

Peak level 89.1 %
Extraction speed 9.5 X
Track quality 100.0 %
Test CRC 02A38823
Copy CRC 02A38823
Cannot be verified as accurate (confidence 2) [FC0A3616], AccurateRip returned [B871C3F9] (AR v2)
Copy OK

Track 21

Filename C:\Users\gari\Documents\!Temp\21 - Я из дела ушел.wav

Peak level 96.7 %
Extraction speed 6.3 X
Track quality 99.9 %
Test CRC 29D2F29F
Copy CRC 29D2F29F
Cannot be verified as accurate (confidence 2) [754F5A57], AccurateRip returned [2F0FB0D1] (AR v2)
Copy OK

Track 22

Filename C:\Users\gari\Documents\!Temp\22 - ''У меня было сорок фамилий…''.wav

Peak level 98.8 %
Extraction speed 7.3 X
Track quality 100.0 %
Test CRC 87B6076C
Copy CRC 87B6076C
Cannot be verified as accurate (confidence 2) [5D91130D], AccurateRip returned [52161F03] (AR v2)
Copy OK

Track 23

Filename C:\Users\gari\Documents\!Temp\23 - ''Передо мной любой факир - ну просто карлик…''.wav

Peak level 98.8 %
Extraction speed 7.7 X
Track quality 100.0 %
Test CRC 32A36D84
Copy CRC 32A36D84
Cannot be verified as accurate (confidence 2) [8C502E38], AccurateRip returned [592AA38D] (AR v2)
Copy OK

Track 24

Filename C:\Users\gari\Documents\!Temp\24 - ''За меня невеста отрыдает честно…''.wav

Peak level 98.8 %
Extraction speed 9.0 X
Track quality 100.0 %
Test CRC 2C48AFCB
Copy CRC 2C48AFCB
Cannot be verified as accurate (confidence 2) [2606517D], AccurateRip returned [8E4931DB] (AR v2)
Copy OK

Track 25

Filename C:\Users\gari\Documents\!Temp\25 - Весна еще в начале.wav

Peak level 98.8 %
Extraction speed 9.2 X
Track quality 100.0 %
Test CRC 1C2538E5
Copy CRC 1C2538E5
Cannot be verified as accurate (confidence 2) [D0EB6D93], AccurateRip returned [DC3240CB] (AR v2)
Copy OK

Track 26

Filename C:\Users\gari\Documents\!Temp\26 - Инструкция перед поездкой за рубеж, или Полчаса в месткоме.wav

Peak level 98.8 %
Extraction speed 10.5 X
Track quality 100.0 %
Test CRC 02122D27
Copy CRC 02122D27
Cannot be verified as accurate (confidence 2) [7BB21000], AccurateRip returned [49E35FC6] (AR v2)
Copy OK

Track 27

Filename C:\Users\gari\Documents\!Temp\27 - Песенка о переселении душ.wav

Peak level 90.8 %
Extraction speed 6.4 X
Track quality 99.9 %
Test CRC 1388BA3E
Copy CRC 1388BA3E
Cannot be verified as accurate (confidence 2) [CAFB5860], AccurateRip returned [F6601D8D] (AR v2)
Copy OK

Track 28

Filename C:\Users\gari\Documents\!Temp\28 - Песенка ни про что, или Что случилось в Африке.wav

Peak level 98.8 %
Extraction speed 7.2 X
Track quality 100.0 %
Test CRC E5C68603
Copy CRC E5C68603
Cannot be verified as accurate (confidence 2) [8FC6A743], AccurateRip returned [1FB56911] (AR v2)
Copy OK

Track 29

Filename C:\Users\gari\Documents\!Temp\29 - Утренняя гимнастика.wav

Peak level 91.4 %
Extraction speed 6.9 X
Track quality 100.0 %
Test CRC 7E616022
Copy CRC 7E616022
Cannot be verified as accurate (confidence 2) [76D8C11F], AccurateRip returned [7D09952A] (AR v2)
Copy OK

28 track(s) could not be verified as accurate
1 track(s) not present in the AccurateRip database

No tracks could be verified as accurate
You may have a different pressing from the one(s) in the database

No errors occurred

End of status report

==== Log checksum 24E9FC57C83EEC9038989BE8BBA0EEBB1D64DDE87AB633381FDB1BE22752780F ====

Этот торрент недоступен для скачивания без регистрации, однако доступен по публичной magnet-ссылке (источники с публичных трекеров). Перед использованием ссылки прочтите, пожалуйста Пользовательское соглашение, а также как можно дольше оставайтесь на раздаче! Для того, чтобы скачать сам торрент-файл (который видит больше источников), а также для того, чтобы поблагодарить релизера, вам необходимо зарегистрироваться. Если регистрироваться лень - вы можете также попробовать скачать релиз по нашим партнерским ссылкам ниже. Кроме того, зарегистрированным пользователям не показывается всплывающая реклама при скачивании.

[underverse.su].t16661.torrent
Трекер: Зарегистрирован   [ 05.01.2012 18:01 ]  

Статус: проверено (by garry at 05.01.2012 18:02)
Поблагодарили: 3 человека
Тип торрента: публичный - доступные источники с открытых трекеров: 
Размер: 874 MB (занимает 0,2 DVDR, для записи нужно 1 болванка DVDR/RW)
 
 
Похожие темы
Форум Тема Автор Торрент Отв. Посл. сооб.
Авторские песни, Барды (Авторская песня) Владимир Высоцкий - Полная коллекция (2009) [MP3, 320 kbps] Добрый жмот
21 | 5

11 | 5870

82

31.07.2013 07:22

Авторские песни, Барды (Авторская песня) Тимур Шаов - О чем молчал Герасим... (2010) [MP3, 320 kbps] KonKoSerg
5 | 0

4 | 2609

26

24.08.2013 06:03

Авторские песни, Барды (Авторская песня) Татьяна и Сергей Никитины - Городок, что я выдумал (2011) [MP3, 320 kbps] KonKoSerg
6 | 1

1 | 2898

40

11.05.2013 10:18

Авторские песни, Барды (Авторская песня) Владимир Высоцкий - Дискография [22 СD] (2001-2007) [MP3, 320 CBR] vovanig
2 | 0

2 | 3510

57

07.08.2014 19:18

Авторские песни, Барды (Авторская песня) Семён Слепаков - Альбом 1 (2012) [MP3, 320 kbps CBR] Бишеп
1 | 0

1 | 2051

53

11.05.2013 07:53

Авторские песни, Барды (Авторская песня, Фолк) Никола Емелин (Емеля) - Дискография (6 альбомов) (1989 - 2011) [MP3, 64-320 kbps] gregsib
14 | 0

1 | 2044

24

05.07.2013 18:48

Авторские песни, Барды (Авторская песня) Вячеслав Мясников (Уральские пельмени) - Сборник песен (2014) [MP3, 128-320 kbps CBR] terra07
1 | 0

1 | 2696

42

09.12.2015 14:37

Авторские песни, Барды (Авторская песня) Владимир Высоцкий - Спасибо, что живой. Песни из кинофильма... - и не только (2012) [MP3, 320 kbps CBR] valera87
3 | 0

0 | 1256

8

14.03.2015 16:31

# Авторские песни, Барды (Lossless) (Авторская песня) Евгений Баранник - На Прорезной (2010) [FLAC (Tracks+.CUE), lossless] garry
1 | 0

0 | 2420

1

20.02.2012 18:25

Авторские песни, Барды (Lossless) (Авторская песня) Владимир Высоцкий - Натянутый канат (1996) [FLAC (Image+.CUE), Lossless] Бишеп
1 | 0

0 | 1828

1

06.04.2012 07:04

BUBOCHKA Пол:Муж

21-Апр-2012 07:06

Спасибо, давно искал. :good:

Яндекс.Метрика powered by Sphinx


В Н И М А Н И Е
Сайт не распространяет и не хранит электронные версии произведений, а лишь бесплатно и без коммерческой выгоды (не требуя взамен платы,
SMS и т.д.) предоставляет доступ к создаваемому пользователями каталогу ссылок на торрент-файлы, которые содержат только списки хеш-сумм.
Убедительная просьба с жалобами обращаться напрямую к пользователю, разместившему торрент файл.

Вверх