Loading...
Error

(Punk Rock) Сектор Газа - Гуляй, Мужик! (1994) [FLAC (Image+.CUE), Lossless]

Статистика раздачи
Размер:  288 MB   |    Зарегистрирован:  1 год 11 месяцев   |    Скачан:  1 раз

Полного источника не было: 3 часа

Сидов:  0  |  0 KB/s  ]   Личеров:  0  |  0 KB/s  ]

* - сиды/пиры с внешних источников

   
 
Автор Сообщение

Бишеп Пол:Муж

29-Мар-2012 11:09

Сектор Газа - Гуляй, Мужик!

Жанр: Punk Rock
Год выпуска: 1994
Источник: CD
Производитель диска: Gala Records - GL 10174
Аудиокодек: FLAC
Тип рипа: Image+.CUE
Битрейт аудио: lossless
Продолжительность: 00:41:06


Треклист:
01. Гуляй, Мужик!
02. Мастурбация
03. Видак
04. Колхозная
05. Я устал
06. Л.Т.П.
07. Бомж
08. Трипак
09. Як на хуторе...
10. Вурдалак
11. Моя бабка
12. Частушки

Код:

Exact Audio Copy V1.0 beta 3 from 29. August 2011

EAC extraction logfile from 3. February 2016, 11:49

Сектор Газа / Гуляй, Мужик!

Used drive  : TSSTcorpCDDVDW SH-224DB   Adapter: 0  ID: 1

Read mode               : Secure
Utilize accurate stream : Yes
Defeat audio cache      : Yes
Make use of C2 pointers : No

Read offset correction                      : 6
Overread into Lead-In and Lead-Out          : No
Fill up missing offset samples with silence : Yes
Delete leading and trailing silent blocks   : No
Null samples used in CRC calculations       : Yes
Used interface                              : Installed external ASPI interface

Used output format              : User Defined Encoder
Selected bitrate                : 1024 kBit/s
Quality                         : High
Add ID3 tag                     : No
Command line compressor         : D:\Program Files\Foobar2000\encoders\flac.exe
Additional command line options :  -V -8 -T "Date=%year%" -T "Genre=%genre%" %source%

TOC of the extracted CD

     Track |   Start  |  Length  | Start sector | End sector
    ---------------------------------------------------------
        1  |  0:00.00 |  3:04.55 |         0    |    13854   
        2  |  3:04.55 |  3:39.62 |     13855    |    30341   
        3  |  6:44.42 |  3:02.33 |     30342    |    44024   
        4  |  9:47.00 |  2:54.55 |     44025    |    57129   
        5  | 12:41.55 |  2:30.10 |     57130    |    68389   
        6  | 15:11.65 |  3:26.72 |     68390    |    83911   
        7  | 18:38.62 |  3:32.55 |     83912    |    99866   
        8  | 22:11.42 |  4:25.13 |     99867    |   119754   
        9  | 26:36.55 |  3:24.32 |    119755    |   135086   
       10  | 30:01.12 |  2:39.05 |    135087    |   147016   
       11  | 32:40.17 |  2:54.70 |    147017    |   160136   
       12  | 35:35.12 |  5:30.70 |    160137    |   184956   

Range status and errors

Selected range

     Filename D:\Desktop\Сектор Газа - Гуляй, Мужик! (1994)\Сектор Газа - Гуляй, Мужик!.wav

     Peak level 99.7 %
     Extraction speed 3.9 X
     Range quality 99.9 %
     Test CRC EDE5D0A6
     Copy CRC EDE5D0A6
     Copy OK

No errors occurred

 
AccurateRip summary
 
Track  1  accurately ripped (confidence 4)  [AA53429A]  (AR v2)
Track  2  accurately ripped (confidence 4)  [68746330]  (AR v2)
Track  3  accurately ripped (confidence 4)  [32DC6E6E]  (AR v2)
Track  4  accurately ripped (confidence 4)  [B8F12CE9]  (AR v2)
Track  5  accurately ripped (confidence 5)  [6A8DAF06]  (AR v2)
Track  6  accurately ripped (confidence 4)  [F861ED5F]  (AR v2)
Track  7  accurately ripped (confidence 4)  [8AA8EC5A]  (AR v2)
Track  8  accurately ripped (confidence 4)  [8D881C4B]  (AR v2)
Track  9  accurately ripped (confidence 5)  [4C84C7B3]  (AR v2)
Track 10  accurately ripped (confidence 4)  [84678C2A]  (AR v2)
Track 11  accurately ripped (confidence 4)  [42A7DCAF]  (AR v2)
Track 12  accurately ripped (confidence 4)  [6DA0557D]  (AR v2)
 
All tracks accurately ripped

End of status report

==== Log checksum 9A08CC69323267C7063604043065D8E657638462C54EE361935246450D026521 ====

Код:

REM GENRE "Punk Rock"
REM DATE 1994
REM DISCID 9E09A20C
REM COMMENT "ExactAudioCopy v1.0b3"
PERFORMER "Сектор Газа"
TITLE "Гуляй, Мужик!"
FILE "Сектор Газа - Гуляй, Мужик!.flac" WAVE
  TRACK 01 AUDIO
    TITLE "Гуляй, Мужик!"
    PERFORMER "Сектор Газа"
    INDEX 01 00:00:00
  TRACK 02 AUDIO
    TITLE "Мастурбация"
    PERFORMER "Сектор Газа"
    INDEX 01 03:04:55
  TRACK 03 AUDIO
    TITLE "Видак"
    PERFORMER "Сектор Газа"
    INDEX 01 06:44:42
  TRACK 04 AUDIO
    TITLE "Колхозная"
    PERFORMER "Сектор Газа"
    INDEX 01 09:47:00
  TRACK 05 AUDIO
    TITLE "Я устал"
    PERFORMER "Сектор Газа"
    INDEX 01 12:41:55
  TRACK 06 AUDIO
    TITLE "Л.Т.П."
    PERFORMER "Сектор Газа"
    INDEX 01 15:11:65
  TRACK 07 AUDIO
    TITLE "Бомж"
    PERFORMER "Сектор Газа"
    INDEX 01 18:38:62
  TRACK 08 AUDIO
    TITLE "Трипак"
    PERFORMER "Сектор Газа"
    INDEX 01 22:11:42
  TRACK 09 AUDIO
    TITLE "Як на хуторе..."
    PERFORMER "Сектор Газа"
    INDEX 01 26:36:55
  TRACK 10 AUDIO
    TITLE "Вурдалак"
    PERFORMER "Сектор Газа"
    INDEX 01 30:01:12
  TRACK 11 AUDIO
    TITLE "Моя бабка"
    PERFORMER "Сектор Газа"
    INDEX 01 32:40:17
  TRACK 12 AUDIO
    TITLE "Частушки"
    PERFORMER "Сектор Газа"
    INDEX 01 35:35:12

Этот торрент недоступен для скачивания без регистрации, однако доступен по публичной magnet-ссылке (источники с публичных трекеров). Перед использованием ссылки прочтите, пожалуйста Пользовательское соглашение, а также как можно дольше оставайтесь на раздаче! Для того, чтобы скачать сам торрент-файл (который видит больше источников), а также для того, чтобы поблагодарить релизера, вам необходимо зарегистрироваться. Если регистрироваться лень - вы можете также попробовать скачать релиз по нашим партнерским ссылкам ниже. Кроме того, зарегистрированным пользователям не показывается всплывающая реклама при скачивании.

[underverse.su].t68254.torrent
Трекер: Зарегистрирован   [ 20.07.2016 05:00 ]  

Статус: проверено (by Бишеп at 20.07.2016 05:01)
Поблагодарили: 1 человек
Тип торрента: публичный - доступные источники с открытых трекеров: 
Размер: 288 MB (занимает 0,06 DVDR, для записи нужно 1 болванка DVDR/RW)
 
 
Похожие темы
Форум Тема Автор Торрент Отв. Посл. сооб.
Зарубежный Punk, Hardcore, Grunge, Alternative (Punk Rock/Street Punk) BRDigung - In Goldenen Ketten (2014) [MP3, 320 kbps] Jimmy
1 | 0

0 | 1059

4

23.04.2014 16:00

Зарубежный Punk, Hardcore, Grunge, Alternative (Punk Rock/Heavy Punk) Desakato - Buen Viaje (2014) [MP3, 320 kbps] Jimmy
1 | 0

0 | 799

5

23.04.2014 15:53

Зарубежный Punk, Hardcore, Grunge, Alternative (Punk Rock) Richie Ramone - Entitled [ex-Ramones] (2013) [MP3, 320 kbps] Jimmy
2 | 0

0 | 2031

2

21.12.2013 08:03

Зарубежный Punk, Hardcore, Grunge, Alternative (Punk Rock/Old School Pop Punk) The Bugs - 2 альбома (The Bugs/Missile To The Middle East) (2008/2013) [MP3, 320 kbps] Jimmy
0 | 0

0 | 2131

0

21.12.2013 08:06

Зарубежный Punk, Hardcore, Grunge, Alternative (Punk Rock) The So So Glos - Blowout (2013) [MP3, 320 kbps] Jimmy
1 | 0

0 | 1831

1

04.01.2014 10:17

Зарубежный Punk, Hardcore, Grunge, Alternative (Punk Rock | Melodic Hardcore) Noopinion - No Chains For Change (2013) [MP3, 320 kbps] Jimmy
1 | 0

0 | 1772

2

04.01.2014 14:20

Зарубежный Punk, Hardcore, Grunge, Alternative (Punk Rock) Stiff Little Fingers - No Going Back (2014) [MP3, 320 kbps] Jimmy
1 | 5

0 | 1761

5

23.03.2014 05:20

Зарубежный Punk, Hardcore, Grunge, Alternative (Punk Rock, Skate Punk, Melodic Punk) Authority Zero - Broadcasting To The Nations (2017) [MP3, 320 kbps CBR] Darkferse
11 | 0

0 | 833

2

02.06.2017 15:14

Зарубежный Punk, Hardcore, Grunge, Alternative (Punk Rock, Reggae) Anti-Nowhere League - League Style (Loosen Up Volume 1) (2017) [MP3, 320 kbps CBR] Darkferse
1 | 0

0 | 439

1

05.06.2017 23:58

Зарубежный Punk, Hardcore, Grunge, Alternative (Punk Rock) Beatsteaks - YOURS (2017) [MP3, 320 kbps CBR] Darkferse
6 | 1

0 | 503

1

06.09.2017 10:18



Последний раз редактировалось: Бишеп (20.07.2016 05:00), всего редактировалось 6 раз(а)

Yurkin27 Пол:Муж

29-Мар-2012 12:08

А другие альбомы будут? За этот спасибо!

Бишеп Пол:Муж

29-Мар-2012 12:27

Yurkin27
Да сделаю

Яндекс.Метрика powered by Sphinx


В Н И М А Н И Е
Сайт не распространяет и не хранит электронные версии произведений, а лишь бесплатно и без коммерческой выгоды (не требуя взамен платы,
SMS и т.д.) предоставляет доступ к создаваемому пользователями каталогу ссылок на торрент-файлы, которые содержат только списки хеш-сумм.
Убедительная просьба с жалобами обращаться напрямую к пользователю, разместившему торрент файл.

Вверх