Loading...
Error

(Downtempo, Electronic, Trip-Hop) Emancipator - Дискография (2006-2011) [FLAC (Tracks+.CUE), lossless]

Статистика раздачи
Размер:  1,93 GB   |    Зарегистрирован:  5 лет 10 месяцев   |    Скачан:  1 раз

Полного источника не было: 3 года 7 месяцев

Сидов:  0  |  0 KB/s  ]   Личеров:  1  |  0 KB/s  ]

* - сиды/пиры с внешних источников

   
 
Автор Сообщение

theatre Пол:Муж

27-Авг-2012 09:13




Жанр: Modern Classical, Downtempo, Electronic, Trip-Hop
Год выпуска: 2006-2011
Производитель диска: Emancipator Music, Hydeout Productions
Аудиокодек: FLAC
Тип рипа: Tracks+.CUE
Битрейт аудио: lossless
Продолжительность: 05:37:44
Tracklist:
01 - Eve
02 - Soon It Will Be Cold Enough To Build Fires
03 - First Snow
04 - Wolf Drawn
05 - Anthem
06 - Smoke Signals
07 - When I Go
08 - Periscope Up
09 - With Rainy Eyes
10 - Good Knight
11 - Lionheart
12 - Maps
13 - Father King
14 - The Darkest Evening Of The Year


Time Length: 64:04
X Lossless Decoder version 20080926 (93.3)
XLD extraction logfile from 2008-11-24 00:24:22 -0500
Emancipator / Emancipator
Used drive : MATSHITA DVD-R UJ-867 (revision HA13)
Use cdparanoia mode : YES (CDParanoia III 10.2 engine)
Disable audio cache : OK for the drive with cache less than 2750KB
Make use of C2 pointers : NO
Read offset correction : 102
Max retry count : 100
TOC of the extracted CD
Track | Start | Length | Start sector | End sector
---------------------------------------------------------
1 | 00:00:00 | 05:43:43 | 0 | 25767
2 | 05:43:43 | 02:52:65 | 25768 | 38732
3 | 08:36:33 | 05:11:69 | 38733 | 62126
4 | 13:48:27 | 03:17:01 | 62127 | 76902
5 | 17:05:28 | 05:35:30 | 76903 | 102057
6 | 22:40:58 | 03:45:03 | 102058 | 118935
7 | 26:25:61 | 05:34:10 | 118936 | 143995
8 | 31:59:71 | 02:58:16 | 143996 | 157361
9 | 34:58:12 | 04:57:74 | 157362 | 179710
10 | 39:56:11 | 05:05:05 | 179711 | 202590
11 | 45:01:16 | 06:19:22 | 202591 | 231037
12 | 51:20:38 | 04:20:28 | 231038 | 250565
13 | 55:40:66 | 06:09:19 | 250566 | 278259
14 | 61:50:10 | 02:19:68 | 278260 | 288752
Track 01
Filename : /Volumes/My Book/!!Mac/!Downloads/!What.cd/!Uploaded/Emancipator - Soon it will be cold enough/01 Emancipator - Eve.flac
/Volumes/My Book/!!Mac/!Downloads/!What.cd/!Uploaded/Emancipator - Soon it will be cold enough/01 Emancipator - Eve.mp3
CRC32 hash (test run) : 0E933CB5
CRC32 hash : 0E933CB5
CRC32 hash (skip zero) : 74EF9893
AccurateRip signature : 6D21CF30
->Track not present in AccurateRip database.
Statistics
Read error : 0
Skipped (treated as error) : 0
Edge jitter error (maybe fixed) : 0
Atom jitter error (maybe fixed) : 0
Drift error (maybe fixed) : 0
Dropped bytes error (maybe fixed) : 0
Duplicated bytes error (maybe fixed) : 0
Inconsistency in error sectors : 0
Track 02
Filename : /Volumes/My Book/!!Mac/!Downloads/!What.cd/!Uploaded/Emancipator - Soon it will be cold enough/02 Emancipator - Soon It Will Be Cold Enough To Build Fires.flac
/Volumes/My Book/!!Mac/!Downloads/!What.cd/!Uploaded/Emancipator - Soon it will be cold enough/02 Emancipator - Soon It Will Be Cold Enough To Build Fires.mp3
CRC32 hash (test run) : 6B8AC2B7
CRC32 hash : 6B8AC2B7
CRC32 hash (skip zero) : 3AB11C21
AccurateRip signature : 2B745F0C
->Track not present in AccurateRip database.
Statistics
Read error : 0
Skipped (treated as error) : 0
Edge jitter error (maybe fixed) : 0
Atom jitter error (maybe fixed) : 0
Drift error (maybe fixed) : 0
Dropped bytes error (maybe fixed) : 0
Duplicated bytes error (maybe fixed) : 0
Inconsistency in error sectors : 0
Track 03
Filename : /Volumes/My Book/!!Mac/!Downloads/!What.cd/!Uploaded/Emancipator - Soon it will be cold enough/03 Emancipator - First Snow.flac
/Volumes/My Book/!!Mac/!Downloads/!What.cd/!Uploaded/Emancipator - Soon it will be cold enough/03 Emancipator - First Snow.mp3
CRC32 hash (test run) : 4CA3A090
CRC32 hash : 4CA3A090
CRC32 hash (skip zero) : F10000B2
AccurateRip signature : 21F4997F
->Track not present in AccurateRip database.
Statistics
Read error : 0
Skipped (treated as error) : 0
Edge jitter error (maybe fixed) : 0
Atom jitter error (maybe fixed) : 0
Drift error (maybe fixed) : 0
Dropped bytes error (maybe fixed) : 0
Duplicated bytes error (maybe fixed) : 0
Inconsistency in error sectors : 0
Track 04
Filename : /Volumes/My Book/!!Mac/!Downloads/!What.cd/!Uploaded/Emancipator - Soon it will be cold enough/04 Emancipator - Wolf Drawn.flac
/Volumes/My Book/!!Mac/!Downloads/!What.cd/!Uploaded/Emancipator - Soon it will be cold enough/04 Emancipator - Wolf Drawn.mp3
CRC32 hash (test run) : E7C38375
CRC32 hash : E7C38375
CRC32 hash (skip zero) : 7E6EE863
AccurateRip signature : F8C60611
->Track not present in AccurateRip database.
Statistics
Read error : 0
Skipped (treated as error) : 0
Edge jitter error (maybe fixed) : 0
Atom jitter error (maybe fixed) : 0
Drift error (maybe fixed) : 0
Dropped bytes error (maybe fixed) : 0
Duplicated bytes error (maybe fixed) : 0
Inconsistency in error sectors : 0
Track 05
Filename : /Volumes/My Book/!!Mac/!Downloads/!What.cd/!Uploaded/Emancipator - Soon it will be cold enough/05 Emancipator - Anthem.flac
/Volumes/My Book/!!Mac/!Downloads/!What.cd/!Uploaded/Emancipator - Soon it will be cold enough/05 Emancipator - Anthem.mp3
CRC32 hash (test run) : BE2852CD
CRC32 hash : BE2852CD
CRC32 hash (skip zero) : 141D551F
AccurateRip signature : FAE75A66
->Track not present in AccurateRip database.
Statistics
Read error : 0
Skipped (treated as error) : 0
Edge jitter error (maybe fixed) : 0
Atom jitter error (maybe fixed) : 0
Drift error (maybe fixed) : 0
Dropped bytes error (maybe fixed) : 0
Duplicated bytes error (maybe fixed) : 0
Inconsistency in error sectors : 0
Track 06
Filename : /Volumes/My Book/!!Mac/!Downloads/!What.cd/!Uploaded/Emancipator - Soon it will be cold enough/06 Emancipator - Smoke Signals.flac
/Volumes/My Book/!!Mac/!Downloads/!What.cd/!Uploaded/Emancipator - Soon it will be cold enough/06 Emancipator - Smoke Signals.mp3
CRC32 hash (test run) : F52A7B4C
CRC32 hash : F52A7B4C
CRC32 hash (skip zero) : 562F7E94
AccurateRip signature : 928BB16A
->Track not present in AccurateRip database.
Statistics
Read error : 0
Skipped (treated as error) : 0
Edge jitter error (maybe fixed) : 0
Atom jitter error (maybe fixed) : 0
Drift error (maybe fixed) : 0
Dropped bytes error (maybe fixed) : 0
Duplicated bytes error (maybe fixed) : 0
Inconsistency in error sectors : 0
Track 07
Filename : /Volumes/My Book/!!Mac/!Downloads/!What.cd/!Uploaded/Emancipator - Soon it will be cold enough/07 Emancipator - When I Go.flac
/Volumes/My Book/!!Mac/!Downloads/!What.cd/!Uploaded/Emancipator - Soon it will be cold enough/07 Emancipator - When I Go.mp3
CRC32 hash (test run) : F0BC9C10
CRC32 hash : F0BC9C10
CRC32 hash (skip zero) : BA2ADD74
AccurateRip signature : D4937386
->Track not present in AccurateRip database.
Statistics
Read error : 0
Skipped (treated as error) : 0
Edge jitter error (maybe fixed) : 0
Atom jitter error (maybe fixed) : 0
Drift error (maybe fixed) : 0
Dropped bytes error (maybe fixed) : 0
Duplicated bytes error (maybe fixed) : 0
Inconsistency in error sectors : 0
Track 08
Filename : /Volumes/My Book/!!Mac/!Downloads/!What.cd/!Uploaded/Emancipator - Soon it will be cold enough/08 Emancipator - Periscope Up.flac
/Volumes/My Book/!!Mac/!Downloads/!What.cd/!Uploaded/Emancipator - Soon it will be cold enough/08 Emancipator - Periscope Up.mp3
CRC32 hash (test run) : 207E20B6
CRC32 hash : 207E20B6
CRC32 hash (skip zero) : DB9257A1
AccurateRip signature : C4F01C3C
->Track not present in AccurateRip database.
Statistics
Read error : 0
Skipped (treated as error) : 0
Edge jitter error (maybe fixed) : 0
Atom jitter error (maybe fixed) : 0
Drift error (maybe fixed) : 0
Dropped bytes error (maybe fixed) : 0
Duplicated bytes error (maybe fixed) : 0
Inconsistency in error sectors : 0
Track 09
Filename : /Volumes/My Book/!!Mac/!Downloads/!What.cd/!Uploaded/Emancipator - Soon it will be cold enough/09 Emancipator - With Rainy Eyes.flac
/Volumes/My Book/!!Mac/!Downloads/!What.cd/!Uploaded/Emancipator - Soon it will be cold enough/09 Emancipator - With Rainy Eyes.mp3
CRC32 hash (test run) : AA5509CB
CRC32 hash : AA5509CB
CRC32 hash (skip zero) : BAD72EAB
AccurateRip signature : 14838062
->Track not present in AccurateRip database.
Statistics
Read error : 0
Skipped (treated as error) : 0
Edge jitter error (maybe fixed) : 0
Atom jitter error (maybe fixed) : 0
Drift error (maybe fixed) : 0
Dropped bytes error (maybe fixed) : 0
Duplicated bytes error (maybe fixed) : 0
Inconsistency in error sectors : 0
Track 10
Filename : /Volumes/My Book/!!Mac/!Downloads/!What.cd/!Uploaded/Emancipator - Soon it will be cold enough/10 Emancipator - Good Knight.flac
/Volumes/My Book/!!Mac/!Downloads/!What.cd/!Uploaded/Emancipator - Soon it will be cold enough/10 Emancipator - Good Knight.mp3
CRC32 hash (test run) : 9BEEFE3E
CRC32 hash : 9BEEFE3E
CRC32 hash (skip zero) : B1A7EF29
AccurateRip signature : DE866BCE
->Track not present in AccurateRip database.
Statistics
Read error : 0
Skipped (treated as error) : 0
Edge jitter error (maybe fixed) : 0
Atom jitter error (maybe fixed) : 0
Drift error (maybe fixed) : 0
Dropped bytes error (maybe fixed) : 0
Duplicated bytes error (maybe fixed) : 0
Inconsistency in error sectors : 0
Track 11
Filename : /Volumes/My Book/!!Mac/!Downloads/!What.cd/!Uploaded/Emancipator - Soon it will be cold enough/11 Emancipator - Lionheart.flac
/Volumes/My Book/!!Mac/!Downloads/!What.cd/!Uploaded/Emancipator - Soon it will be cold enough/11 Emancipator - Lionheart.mp3
CRC32 hash (test run) : 76EA8FAB
CRC32 hash : 76EA8FAB
CRC32 hash (skip zero) : 8A4C463C
AccurateRip signature : 857085F9
->Track not present in AccurateRip database.
Statistics
Read error : 0
Skipped (treated as error) : 0
Edge jitter error (maybe fixed) : 0
Atom jitter error (maybe fixed) : 0
Drift error (maybe fixed) : 0
Dropped bytes error (maybe fixed) : 0
Duplicated bytes error (maybe fixed) : 0
Inconsistency in error sectors : 0
Track 12
Filename : /Volumes/My Book/!!Mac/!Downloads/!What.cd/!Uploaded/Emancipator - Soon it will be cold enough/12 Emancipator - Maps.flac
/Volumes/My Book/!!Mac/!Downloads/!What.cd/!Uploaded/Emancipator - Soon it will be cold enough/12 Emancipator - Maps.mp3
CRC32 hash (test run) : 7AB4796E
CRC32 hash : 7AB4796E
CRC32 hash (skip zero) : 52DCFF11
AccurateRip signature : 217B6559
->Track not present in AccurateRip database.
Statistics
Read error : 0
Skipped (treated as error) : 0
Edge jitter error (maybe fixed) : 0
Atom jitter error (maybe fixed) : 0
Drift error (maybe fixed) : 0
Dropped bytes error (maybe fixed) : 0
Duplicated bytes error (maybe fixed) : 0
Inconsistency in error sectors : 0
Track 13
Filename : /Volumes/My Book/!!Mac/!Downloads/!What.cd/!Uploaded/Emancipator - Soon it will be cold enough/13 Emancipator - Father King.flac
/Volumes/My Book/!!Mac/!Downloads/!What.cd/!Uploaded/Emancipator - Soon it will be cold enough/13 Emancipator - Father King.mp3
CRC32 hash (test run) : DD8FC853
CRC32 hash : DD8FC853
CRC32 hash (skip zero) : 2E29E7D9
AccurateRip signature : 4165E91F
->Track not present in AccurateRip database.
Statistics
Read error : 0
Skipped (treated as error) : 0
Edge jitter error (maybe fixed) : 0
Atom jitter error (maybe fixed) : 0
Drift error (maybe fixed) : 0
Dropped bytes error (maybe fixed) : 0
Duplicated bytes error (maybe fixed) : 0
Inconsistency in error sectors : 0
Track 14
Filename : /Volumes/My Book/!!Mac/!Downloads/!What.cd/!Uploaded/Emancipator - Soon it will be cold enough/14 Emancipator - The Darkest Evening Of The Year.flac
/Volumes/My Book/!!Mac/!Downloads/!What.cd/!Uploaded/Emancipator - Soon it will be cold enough/14 Emancipator - The Darkest Evening Of The Year.mp3
CRC32 hash (test run) : 7F1722E0
CRC32 hash : 7F1722E0
CRC32 hash (skip zero) : 659E0C8F
AccurateRip signature : 03531D0B
->Track not present in AccurateRip database.
Statistics
Read error : 0
Skipped (treated as error) : 0
Edge jitter error (maybe fixed) : 0
Atom jitter error (maybe fixed) : 0
Drift error (maybe fixed) : 0
Dropped bytes error (maybe fixed) : 0
Duplicated bytes error (maybe fixed) : 0
Inconsistency in error sectors : 0
No errors occurred
End of status report
TITLE "Emancipator"
PERFORMER "Emancipator"
REM GENRE "Hip Hop/Rap"
REM DATE 2008
FILE "01 Emancipator - Eve.wav" WAVE
TRACK 01 AUDIO
TITLE "Eve"
INDEX 01 00:00:00
FILE "02 Emancipator - Soon It Will Be Cold Enough To Build Fires.wav" WAVE
TRACK 02 AUDIO
TITLE "Soon It Will Be Cold Enough To Build Fires"
INDEX 01 00:00:00
FILE "03 Emancipator - First Snow.wav" WAVE
TRACK 03 AUDIO
TITLE "First Snow"
INDEX 01 00:00:00
FILE "04 Emancipator - Wolf Drawn.wav" WAVE
TRACK 04 AUDIO
TITLE "Wolf Drawn"
INDEX 01 00:00:00
FILE "05 Emancipator - Anthem.wav" WAVE
TRACK 05 AUDIO
TITLE "Anthem"
INDEX 01 00:00:00
FILE "06 Emancipator - Smoke Signals.wav" WAVE
TRACK 06 AUDIO
TITLE "Smoke Signals"
INDEX 01 00:00:00
FILE "07 Emancipator - When I Go.wav" WAVE
TRACK 07 AUDIO
TITLE "When I Go"
INDEX 01 00:00:00
FILE "08 Emancipator - Periscope Up.wav" WAVE
TRACK 08 AUDIO
TITLE "Periscope Up"
INDEX 01 00:00:00
FILE "09 Emancipator - With Rainy Eyes.wav" WAVE
TRACK 09 AUDIO
TITLE "With Rainy Eyes"
INDEX 01 00:00:00
FILE "10 Emancipator - Good Knight.wav" WAVE
TRACK 10 AUDIO
TITLE "Good Knight"
INDEX 01 00:00:00
FILE "11 Emancipator - Lionheart.wav" WAVE
TRACK 11 AUDIO
TITLE "Lionheart"
INDEX 01 00:00:00
FILE "12 Emancipator - Maps.wav" WAVE
TRACK 12 AUDIO
TITLE "Maps"
INDEX 01 00:00:00
FILE "13 Emancipator - Father King.wav" WAVE
TRACK 13 AUDIO
TITLE "Father King"
INDEX 01 00:00:00
FILE "14 Emancipator - The Darkest Evening Of The Year.wav" WAVE
TRACK 14 AUDIO
TITLE "The Darkest Evening Of The Year"
INDEX 01 00:00:00
Tracklist:
01 - Lionhiart
02 - Wolf Drawn
03 - When I Go (Feat. Thao Nguyen)
04 - With Rainy Eyes
05 - The Darkest Evening Of The Year
06 - Eve
07 - Smoke Signals
08 - Periscope Up
09 - First Snow
10 - Good Knight
11 - Soon It Will Be Cold Enough To Build Fires
12 - Anthem


Time Length: 52:55
EAC extraction logfile from 13. May 2008, 1:30 for CD
emancipator / soon it will be cold enough
Used drive : HL-DT-STDVDRW GSA-S10N Adapter: 0 ID: 1
Read mode : Secure with NO C2, accurate stream, disable cache
Read offset correction : 667
Overread into Lead-In and Lead-Out : No
Used output format : C:\Program Files\Exact Audio Copy\flac.exe (User Defined Encoder)
192 kBit/s
Additional command line options : -V -5 -T "artist=%a" -T "title=%t" -T "album=%g" -T "date=%y" -T "tracknumber=%n" -T "genre=%m" %s
Other options :
Fill up missing offset samples with silence : Yes
Delete leading and trailing silent blocks : No
Installed external ASPI interface
Track 1
Filename E:\Emancipator - Soon It Will Be Cold Enough\01. Emancipator - Lionheart.wav
Pre-gap length 0:00:02.00
Peak level 100.0 %
Track quality 100.0 %
Test CRC EE6EE276
Copy CRC EE6EE276
Copy OK
Track 2
Filename E:\Emancipator - Soon It Will Be Cold Enough\02. Emancipator - Wolf Drawn.wav
Peak level 92.5 %
Track quality 100.0 %
Test CRC 0129A5FF
Copy CRC 0129A5FF
Copy OK
Track 3
Filename E:\Emancipator - Soon It Will Be Cold Enough\03. Emancipator - When I Go (Featuring Thao Nguyen).wav
Pre-gap length 0:00:02.00
Peak level 96.2 %
Track quality 100.0 %
Test CRC 532C47E5
Copy CRC 532C47E5
Copy OK
Track 4
Filename E:\Emancipator - Soon It Will Be Cold Enough\04. Emancipator - With Rainy Eyes.wav
Peak level 98.8 %
Track quality 100.0 %
Test CRC 577210D5
Copy CRC 577210D5
Copy OK
Track 5
Filename E:\Emancipator - Soon It Will Be Cold Enough\05. Emancipator - The Darkest Evening Of The Year.wav
Peak level 82.2 %
Track quality 99.9 %
Test CRC FB2BF75A
Copy CRC FB2BF75A
Copy OK
Track 6
Filename E:\Emancipator - Soon It Will Be Cold Enough\06. Emancipator - Eve.wav
Peak level 92.5 %
Track quality 100.0 %
Test CRC 635705FB
Copy CRC 635705FB
Copy OK
Track 7
Filename E:\Emancipator - Soon It Will Be Cold Enough\07. Emancipator - Smoke Signals.wav
Peak level 97.4 %
Track quality 100.0 %
Test CRC D4EF80E7
Copy CRC D4EF80E7
Copy OK
Track 8
Filename E:\Emancipator - Soon It Will Be Cold Enough\08. Emancipator - Periscope Up.wav
Peak level 96.2 %
Track quality 100.0 %
Test CRC 5099386C
Copy CRC 5099386C
Copy OK
Track 9
Filename E:\Emancipator - Soon It Will Be Cold Enough\09. Emancipator - First Snow.wav
Peak level 96.2 %
Track quality 100.0 %
Test CRC 4E00606E
Copy CRC 4E00606E
Copy OK
Track 10
Filename E:\Emancipator - Soon It Will Be Cold Enough\10. Emancipator - Good Knight.wav
Peak level 96.2 %
Track quality 100.0 %
Test CRC 22A5C8C1
Copy CRC 22A5C8C1
Copy OK
Track 11
Filename E:\Emancipator - Soon It Will Be Cold Enough\11. Emancipator - Soon It Will Be Cold Enough To Build Fires.wav
Peak level 96.2 %
Track quality 100.0 %
Test CRC 8278C554
Copy CRC 8278C554
Copy OK
Track 12
Filename E:\Emancipator - Soon It Will Be Cold Enough\12. Emancipator - Anthem.wav
Peak level 96.2 %
Track quality 100.0 %
Test CRC 2FDD6423
Copy CRC 2FDD6423
Copy OK
No errors occured
End of status report
REM GENRE Electronic
REM DATE 2008
REM DISCID AF0C6C0C
REM COMMENT "ExactAudioCopy v0.95b3"
PERFORMER "emancipator"
TITLE "soon it will be cold enough"
FILE "01. Emancipator - Lionheart.wav" WAVE
TRACK 01 AUDIO
TITLE "lionheart"
PERFORMER "emancipator"
FLAGS DCP
INDEX 01 00:00:00
FILE "02. Emancipator - Wolf Drawn.wav" WAVE
TRACK 02 AUDIO
TITLE "wolf drawn"
PERFORMER "emancipator"
FLAGS DCP
INDEX 01 00:00:00
TRACK 03 AUDIO
TITLE "when i go (featuring thao nguyen)"
PERFORMER "emancipator"
FLAGS DCP
INDEX 00 03:18:00
FILE "03. Emancipator - When I Go (Featuring Thao Nguyen).wav" WAVE
INDEX 01 00:00:00
FILE "04. Emancipator - With Rainy Eyes.wav" WAVE
TRACK 04 AUDIO
TITLE "with rainy eyes"
PERFORMER "emancipator"
FLAGS DCP
INDEX 01 00:00:00
FILE "05. Emancipator - The Darkest Evening Of The Year.wav" WAVE
TRACK 05 AUDIO
TITLE "the darkest evening of the year"
PERFORMER "emancipator"
FLAGS DCP
INDEX 01 00:00:00
FILE "06. Emancipator - Eve.wav" WAVE
TRACK 06 AUDIO
TITLE "eve"
PERFORMER "emancipator"
FLAGS DCP
INDEX 01 00:00:00
FILE "07. Emancipator - Smoke Signals.wav" WAVE
TRACK 07 AUDIO
TITLE "smoke signals"
PERFORMER "emancipator"
FLAGS DCP
INDEX 01 00:00:00
FILE "08. Emancipator - Periscope Up.wav" WAVE
TRACK 08 AUDIO
TITLE "periscope up"
PERFORMER "emancipator"
FLAGS DCP
INDEX 01 00:00:00
FILE "09. Emancipator - First Snow.wav" WAVE
TRACK 09 AUDIO
TITLE "first snow"
PERFORMER "emancipator"
FLAGS DCP
INDEX 01 00:00:00
FILE "10. Emancipator - Good Knight.wav" WAVE
TRACK 10 AUDIO
TITLE "good knight"
PERFORMER "emancipator"
FLAGS DCP
INDEX 01 00:00:00
FILE "11. Emancipator - Soon It Will Be Cold Enough To Build Fires.wav" WAVE
TRACK 11 AUDIO
TITLE "soon it will be cold enough to build fires"
PERFORMER "emancipator"
FLAGS DCP
INDEX 01 00:00:00
FILE "12. Emancipator - Anthem.wav" WAVE
TRACK 12 AUDIO
TITLE "anthem"
PERFORMER "emancipator"
FLAGS DCP
INDEX 01 00:00:00
Tracklist:
01 - Greenland
02 - Black Lake
03 - Jet Stream
04 - Kamakura
05 - All Through The Night
06 - Old Devil
07 - Nevergreen
08 - Ares
09 - Rattlesnakes
10 - Bury Them Bones
11 - Vines
12 - Hill Sighed
13 - Siren
14 - Safe In The Steep Cliffs


Time Length: 57:17
Exact Audio Copy V0.99 prebeta 5 from 4. May 2009
EAC extraction logfile from 5. February 2010, 1:15
Emancipator / Safe In the Steep Cliffs
Used drive : TSSTcorpCDDVDW SH-S223Q Adapter: 1 ID: 0
Read mode : Secure
Utilize accurate stream : Yes
Defeat audio cache : Yes
Make use of C2 pointers : No
Read offset correction : 6
Overread into Lead-In and Lead-Out : No
Fill up missing offset samples with silence : Yes
Delete leading and trailing silent blocks : No
Null samples used in CRC calculations : Yes
Used interface : Native Win32 interface for Win NT & 2000
Gap handling : Appended to previous track
Used output format : User Defined Encoder
Selected bitrate : 320 kBit/s
Quality : High
Add ID3 tag : No
Command line compressor : C:\Program Files\Exact Audio Copy\Flac\flac.exe
Additional command line options : -V -8 -T "artist=%a" -T "title=%t" -T "album=%g" -T "date=%y" -T "tracknumber=%n" -T "genre=%m" %s
TOC of the extracted CD
Track | Start | Length | Start sector | End sector
---------------------------------------------------------
1 | 0:00.00 | 3:11.05 | 0 | 14329
2 | 3:11.05 | 3:38.43 | 14330 | 30722
3 | 6:49.48 | 4:01.56 | 30723 | 48853
4 | 10:51.29 | 4:21.30 | 48854 | 68458
5 | 15:12.59 | 4:33.48 | 68459 | 88981
6 | 19:46.32 | 4:01.17 | 88982 | 107073
7 | 23:47.49 | 3:35.72 | 107074 | 123270
8 | 27:23.46 | 4:28.08 | 123271 | 143378
9 | 31:51.54 | 4:10.09 | 143379 | 162137
10 | 36:01.63 | 4:37.69 | 162138 | 182981
11 | 40:39.57 | 4:38.02 | 182982 | 203833
12 | 45:17.59 | 3:36.05 | 203834 | 220038
13 | 48:53.64 | 3:40.42 | 220039 | 236580
14 | 52:34.31 | 4:48.47 | 236581 | 258227
Track 1
Filename C:\Dem GOOD Rips\Emancipator - - Safe In the Steep Cliffs [FLAC ]\01 - Greenland.wav
Pre-gap length 0:00:02.00
Peak level 96.6 %
Track quality 100.0 %
Test CRC D7C5B05F
Copy CRC D7C5B05F
Track not present in AccurateRip database
Copy OK
Track 2
Filename C:\Dem GOOD Rips\Emancipator - - Safe In the Steep Cliffs [FLAC ]\02 - Black Lake.wav
Peak level 96.6 %
Track quality 100.0 %
Test CRC 589BBBF5
Copy CRC 589BBBF5
Track not present in AccurateRip database
Copy OK
Track 3
Filename C:\Dem GOOD Rips\Emancipator - - Safe In the Steep Cliffs [FLAC ]\03 - Jet Stream.wav
Peak level 96.6 %
Track quality 99.9 %
Test CRC 87B594A3
Copy CRC 87B594A3
Track not present in AccurateRip database
Copy OK
Track 4
Filename C:\Dem GOOD Rips\Emancipator - - Safe In the Steep Cliffs [FLAC ]\04 - Kamakura.wav
Peak level 96.6 %
Track quality 100.0 %
Test CRC 4968B685
Copy CRC 4968B685
Track not present in AccurateRip database
Copy OK
Track 5
Filename C:\Dem GOOD Rips\Emancipator - - Safe In the Steep Cliffs [FLAC ]\05 - All Through the Night.wav
Peak level 96.6 %
Track quality 100.0 %
Test CRC 9E7DA2BC
Copy CRC 9E7DA2BC
Track not present in AccurateRip database
Copy OK
Track 6
Filename C:\Dem GOOD Rips\Emancipator - - Safe In the Steep Cliffs [FLAC ]\06 - Old Devil.wav
Peak level 96.6 %
Track quality 100.0 %
Test CRC 082D8A3A
Copy CRC 082D8A3A
Track not present in AccurateRip database
Copy OK
Track 7
Filename C:\Dem GOOD Rips\Emancipator - - Safe In the Steep Cliffs [FLAC ]\07 - Nevergreen.wav
Peak level 96.6 %
Track quality 100.0 %
Test CRC 670808C6
Copy CRC 670808C6
Track not present in AccurateRip database
Copy OK
Track 8
Filename C:\Dem GOOD Rips\Emancipator - - Safe In the Steep Cliffs [FLAC ]\08 - Ares.wav
Peak level 96.6 %
Track quality 100.0 %
Test CRC B5375E4C
Copy CRC B5375E4C
Track not present in AccurateRip database
Copy OK
Track 9
Filename C:\Dem GOOD Rips\Emancipator - - Safe In the Steep Cliffs [FLAC ]\09 - Rattlesnakes.wav
Peak level 96.6 %
Track quality 100.0 %
Test CRC 5C4FDF3A
Copy CRC 5C4FDF3A
Track not present in AccurateRip database
Copy OK
Track 10
Filename C:\Dem GOOD Rips\Emancipator - - Safe In the Steep Cliffs [FLAC ]\10 - Bury Them Bones.wav
Peak level 96.6 %
Track quality 99.9 %
Test CRC F507CC04
Copy CRC F507CC04
Track not present in AccurateRip database
Copy OK
Track 11
Filename C:\Dem GOOD Rips\Emancipator - - Safe In the Steep Cliffs [FLAC ]\11 - Vines.wav
Peak level 96.6 %
Track quality 100.0 %
Test CRC AB11F7E7
Copy CRC AB11F7E7
Track not present in AccurateRip database
Copy OK
Track 12
Filename C:\Dem GOOD Rips\Emancipator - - Safe In the Steep Cliffs [FLAC ]\12 - Hill Sighed.wav
Peak level 96.6 %
Track quality 100.0 %
Test CRC 4B6DC61A
Copy CRC 4B6DC61A
Track not present in AccurateRip database
Copy OK
Track 13
Filename C:\Dem GOOD Rips\Emancipator - - Safe In the Steep Cliffs [FLAC ]\13 - Siren.wav
Peak level 96.6 %
Track quality 100.0 %
Test CRC 055DBEA0
Copy CRC 055DBEA0
Track not present in AccurateRip database
Copy OK
Track 14
Filename C:\Dem GOOD Rips\Emancipator - - Safe In the Steep Cliffs [FLAC ]\14 - Safe In the Steep Cliffs.wav
Peak level 96.6 %
Track quality 100.0 %
Test CRC CA98E793
Copy CRC CA98E793
Track not present in AccurateRip database
Copy OK
None of the tracks are present in the AccurateRip database
No errors occurred
End of status report
REM GENRE
REM DATE
REM DISCID BD0D730E
REM COMMENT "ExactAudioCopy v0.99pb5"
REM COMMENT "Cue Created at http://eachelper.okamihost.com/"
PERFORMER "Emancipator"
TITLE "Safe in the Steep Cliffs"
FILE "01 - Emancipator - Greenland.flac" WAVE
TRACK 01 AUDIO
TITLE "Greenland"
PERFORMER "Emancipator"
INDEX 01 00:00:00
FILE "02 - Emancipator - Black Lake.flac" WAVE
TRACK 02 AUDIO
TITLE "Black Lake"
PERFORMER "Emancipator"
INDEX 01 00:00:00
FILE "03 - Emancipator - Jet Stream.flac" WAVE
TRACK 03 AUDIO
TITLE "Jet Stream"
PERFORMER "Emancipator"
INDEX 01 00:00:00
FILE "04 - Emancipator - Kamakura.flac" WAVE
TRACK 04 AUDIO
TITLE "Kamakura"
PERFORMER "Emancipator"
INDEX 01 00:00:00
FILE "05 - Emancipator - All Through the Night.flac" WAVE
TRACK 05 AUDIO
TITLE "All Through the Night"
PERFORMER "Emancipator"
INDEX 01 00:00:00
FILE "06 - Emancipator - Old Devil.flac" WAVE
TRACK 06 AUDIO
TITLE "Old Devil"
PERFORMER "Emancipator"
INDEX 01 00:00:00
FILE "07 - Emancipator - Nevergreen.flac" WAVE
TRACK 07 AUDIO
TITLE "Nevergreen"
PERFORMER "Emancipator"
INDEX 01 00:00:00
FILE "08 - Emancipator - Ares.flac" WAVE
TRACK 08 AUDIO
TITLE "Ares"
PERFORMER "Emancipator"
INDEX 01 00:00:00
FILE "09 - Emancipator - Rattlesnakes.flac" WAVE
TRACK 09 AUDIO
TITLE "Rattlesnakes"
PERFORMER "Emancipator"
INDEX 01 00:00:00
FILE "10 - Emancipator - Bury Them Bones.flac" WAVE
TRACK 10 AUDIO
TITLE "Bury Them Bones"
PERFORMER "Emancipator"
INDEX 01 00:00:00
FILE "11 - Emancipator - Vines.flac" WAVE
TRACK 11 AUDIO
TITLE "Vines"
PERFORMER "Emancipator"
INDEX 01 00:00:00
FILE "12 - Emancipator - Hill Sighed.flac" WAVE
TRACK 12 AUDIO
TITLE "Hill Sighed"
PERFORMER "Emancipator"
INDEX 01 00:00:00
FILE "13 - Emancipator - Siren.flac" WAVE
TRACK 13 AUDIO
TITLE "Siren"
PERFORMER "Emancipator"
INDEX 01 00:00:00
FILE "14 - Emancipator - Safe in the Steep Cliffs.flac" WAVE
TRACK 14 AUDIO
TITLE "Safe in the Steep Cliffs"
PERFORMER "Emancipator"
INDEX 01 00:00:00
Tracklist:
01 - Greenland
02 - Black Lake
03 - Jet Stream
04 - Kamakura
05 - All Through The Night
06 - Old Devil
07 - Nevergreen
08 - Ares
09 - Rattlesnakes
10 - Bury Them Bones
11 - Vines
12 - Hill Sighed
13 - Siren
14 - Safe In The Steep Cliffs


Time Length: 57:17
AUDIOCHECKER v1.2 - by Dester - opdester@freemail.hu
Started at: вторник, 19. 01. 2010. - 20:19.52
14 files found
01 -===- E:\torrents\мое\Emancipator [FLAC]\Safe in the Steep Cliffs\01 greenland.flac
Extracted successfully
Conclusion: This track looks like CDDA with probability 1Emancipator00%
Tempfile successfully deleted.
02 -===- E:\torrents\мое\Emancipator [FLAC]\Safe in the Steep Cliffs\02 black lake.flac
Extracted successfully
Conclusion: This track looks like CDDA with probability 100%
Tempfile successfully deleted.
03 -===- E:\torrents\мое\Emancipator [FLAC]\Safe in the Steep Cliffs\03 jet stream.flac
Extracted successfully
Conclusion: This track looks like CDDA with probability 100%
Tempfile successfully deleted.
04 -===- E:\torrents\мое\Emancipator [FLAC]\Safe in the Steep Cliffs\04 kamakura.flac
Extracted successfully
Conclusion: This track looks like CDDA with probability 100%
Tempfile successfully deleted.
05 -===- E:\torrents\мое\Emancipator [FLAC]\Safe in the Steep Cliffs\05 all through the night.flac
Extracted successfully
Conclusion: This track looks like CDDA with probability 99%
Tempfile successfully deleted.
06 -===- E:\torrents\мое\Emancipator [FLAC]\Safe in the Steep Cliffs\06 old devil.flac
Extracted successfully
Conclusion: This track looks like CDDA with probability 100%
Tempfile successfully deleted.
07 -===- E:\torrents\мое\Emancipator [FLAC]\Safe in the Steep Cliffs\07 nevergreen.flac
Extracted successfully
Conclusion: This track looks like CDDA with probability 100%
Tempfile successfully deleted.
08 -===- E:\torrents\мое\Emancipator [FLAC]\Safe in the Steep Cliffs\08 ares.flac
Extracted successfully
Conclusion: This track looks like CDDA with probability 100%
Tempfile successfully deleted.
09 -===- E:\torrents\мое\Emancipator [FLAC]\Safe in the Steep Cliffs\09 rattlesnakes.flac
Extracted successfully
Conclusion: This track looks like CDDA with probability 100%
Tempfile successfully deleted.
10 -===- E:\torrents\мое\Emancipator [FLAC]\Safe in the Steep Cliffs\10 bury them bones.flac
Extracted successfully
Conclusion: This track looks like CDDA with probability 100%
Tempfile successfully deleted.
11 -===- E:\torrents\мое\Emancipator [FLAC]\Safe in the Steep Cliffs\11 vines.flac
Extracted successfully
Conclusion: This track looks like CDDA with probability 100%
Tempfile successfully deleted.
12 -===- E:\torrents\мое\Emancipator [FLAC]\Safe in the Steep Cliffs\12 hill sighed.flac
Extracted successfully
Conclusion: This track looks like CDDA with probability 100%
Tempfile successfully deleted.
13 -===- E:\torrents\мое\Emancipator [FLAC]\Safe in the Steep Cliffs\13 siren.flac
Extracted successfully
Conclusion: This track looks like CDDA with probability 100%
Tempfile successfully deleted.
14 -===- E:\torrents\мое\Emancipator [FLAC]\Safe in the Steep Cliffs\14 safe in the steep cliffs.flac
Extracted successfully
Conclusion: This track looks like CDDA with probability 100%
Tempfile successfully deleted.
Finished at: вторник, 19. 01. 2010. - 20:30.32 (operation time: 0:10.39)
Tracklist:
01 - Shook (Sigur Ros X Mobb Deep)
02 - Maps
03 - Father King


Time Length: 15:15
AUDIOCHECKER v2.0 beta (build 457) - by Dester - opdester@freemail.hu
~~~~~~~~~~~~~~~~~~~~~~~~~~~~~~~~~~
-=== НЕ РЕДАКТИРУЙТЕ ЭТОТ ФАЙЛ! ===-
Путь: ...\2011 - Free Downloads
1 -=- 01 - Emancipator - Shook (Sigur Ros X Mobb Deep).flac -=- CDDA (99%)
2 -=- 02 - Emancipator - Maps.flac -=- CDDA (100%)
3 -=- 03 - Emancipator - Father King.flac -=- CDDA (99%)
Сводка 99,33% CDDA
5291060
Tracklist:
01 - First Snow (Ooah Remix)

Time Length: 7:41
AUDIOCHECKER v2.0 beta (build 457) - by Dester - opdester@freemail.hu
~~~~~~~~~~~~~~~~~~~~~~~~~~~~~~~~~~
-=== НЕ РЕДАКТИРУЙТЕ ЭТОТ ФАЙЛ! ===-
Путь: ...\2011 - First Snow
1 -=- 01 - Emancipator - First Snow (Ooah Remix).flac -=- CDDA (100%)
87126100
Tracklist:
01 - Anthem (Nym Remix)
02 - Ares (Big Gigantic Remix)
03 - Bury Them Bones (Marley Carroll Remix)
04 - Nevergreen (Blockhead Remix)
05 - When I Go (Michal Menert Remix)
06 - First Snow (Ooah Remix)
07 - Jet Stream (D.V.S* Remix)
08 - Old Devil (Kept Blue Remix)
09 - Rattlesnakes (saQi Remix)
10 - Black Lake (Emancipator Remix)
11 - Safe In The Steep Cliffs (Erothyme Remix)
12 - Siren (Tor Remix)
13 - Soon It Will Be Cold Enough To Build Fires (Aligning Minds Remix)
14 - Vines (The Great Mundane Remix)


Time Length: 73:14
AUDIOCHECKER v2.0 beta (build 457) - by Dester - opdester@freemail.hu
~~~~~~~~~~~~~~~~~~~~~~~~~~~~~~~~~~
-=== НЕ РЕДАКТИРУЙТЕ ЭТОТ ФАЙЛ! ===-
Путь: ...\2011 - Remixes
01 -=- Emancipator - Remixes - 01 Anthem (Nym Remix).flac -=- CDDA (100%)
02 -=- Emancipator - Remixes - 02 Ares (Big Gigantic Remix).flac -=- CDDA (100%)
03 -=- Emancipator - Remixes - 03 Bury Them Bones (Marley Carroll Remix).flac -=- CDDA (100%)
04 -=- Emancipator - Remixes - 04 Nevergreen (Blockhead Remix).flac -=- CDDA (100%)
05 -=- Emancipator - Remixes - 05 When I Go (Michal Menert Remix).flac -=- CDDA (100%)
06 -=- Emancipator - Remixes - 06 First Snow (Ooah Remix).flac -=- CDDA (100%)
07 -=- Emancipator - Remixes - 07 Jet Stream (D.V.S- Remix).flac -=- CDDA (100%)
08 -=- Emancipator - Remixes - 08 Old Devil (Kept Blue Remix).flac -=- CDDA (100%)
09 -=- Emancipator - Remixes - 09 Rattlesnakes (saQi Remix).flac -=- CDDA (100%)
10 -=- Emancipator - Remixes - 10 Black Lake (Emancipator Remix).flac -=- CDDA (100%)
11 -=- Emancipator - Remixes - 11 Safe In The Steep Cliffs (Erothyme Remix).flac -=- CDDA (100%)
12 -=- Emancipator - Remixes - 12 Siren (Tor Remix).flac -=- CDDA (99%)
13 -=- Emancipator - Remixes - 13 Soon It Will Be Cold Enough To Build Fires (Aligning Minds Remix).flac -=- CDDA (100%)
14 -=- Emancipator - Remixes - 14 Vines (The Great Mundane Remix).flac -=- CDDA (100%)
Сводка 99,93% CDDA
257867220
Tracklist:
01 - Nevergreen

Time Length: 3:31
AUDIOCHECKER v2.0 beta (build 457) - by Dester - opdester@freemail.hu
~~~~~~~~~~~~~~~~~~~~~~~~~~~~~~~~~~
-=== НЕ РЕДАКТИРУЙТЕ ЭТОТ ФАЙЛ! ===-
Путь: ...\2009 - Safe In The Steep Cliffs
1 -=- 01 Nevergreen.flac -=- CDDA (100%)
35753540
Tracklist:
01 - Elephant Survival

Time Length: 6:26

Emancipator - перспективный, подающий огромные надежды молодой музыкант Дуглас Эпплин (Douglas Appling), известный под псевдонимом Emancipator, родился на свет в городе Нью-Йорке 27 мая 1987 года.
Первая композиция Дугласа "Emancipator - With Rainy Eyes" вошла в сборник «Hyde Out Productions 2nd Collection» 2007 года выпуска. Это сборник вышел под лейблом «Hydeout Productions», принадлежащим популярному японскому джаз и хип-хоп продюсеру, а также ди-джею Nujabes.
Первая пластинка Дугласа появился под тем же самым лейблом. Он называется «Emancipator - Soon It Will Be Cold Enough» и представляет собой собрание лучших композиций молодого музыканта за три года. Он был достаточно тепло встречен любителями музыки и критиками.
В январе прошлого года Emancipator выпустил следующую пластинку, которая стала называться «Emancipator - Safe In The Dteep Cliffs». Этот альбом появился на свет благодаря сотрудничеству Дугласа со знаменитым японским джазовым музыкантом Uyama Hiroto, который был специально приглашен для участия в работе по созданию диска. На этом альбоме можно насладится великолепным звучанием массивных партий гитары, мандолины, скрипки и банджо. На нем отлично сочетаются электронная музыка и живые инструменты, а простые и незатейливые мелодии проникают в самую душу.

Этот торрент недоступен для скачивания без регистрации, однако доступен по публичной magnet-ссылке (источники с публичных трекеров). Перед использованием ссылки прочтите, пожалуйста Пользовательское соглашение, а также как можно дольше оставайтесь на раздаче! Для того, чтобы скачать сам торрент-файл (который видит больше источников), а также для того, чтобы поблагодарить релизера, вам необходимо зарегистрироваться. Если регистрироваться лень - вы можете также попробовать скачать релиз по нашим партнерским ссылкам ниже. Кроме того, зарегистрированным пользователям не показывается всплывающая реклама при скачивании.

[underverse.su].t19469.torrent
Трекер: Зарегистрирован   [ 27.08.2012 09:13 ]  

Статус: проверено (by garry at 27.08.2012 12:15)
Поблагодарили: пока никто не поблагодарил...
Тип торрента: публичный - доступные источники с открытых трекеров: 
Размер: 1,93 GB (занимает 0,44 DVDR, для записи нужно 1 болванка DVDR/RW)
 
 
Похожие темы
Форум Тема Автор Торрент Отв. Посл. сооб.
PsyChill, Ambient Dub (Downtempo, Dub, PsyChill) D. Batistatos - After Dark (2017) [MP3, 320 kbps CBR] Darkferse
6 | 0

0 | 659

5

04.03.2017 15:25

PsyChill, Ambient Dub (Downtempo, Ambient, PsyChill) Koan - Serenity Side A (2017) [MP3, 320 kbps CBR] Darkferse
9 | 2

0 | 822

10

11.03.2017 14:52

PsyChill, Ambient Dub (Downtempo, Psybient, PsyChill) Calicofrost - Altered States (2017) [MP3, 320 kbps CBR] Darkferse
1 | 0

0 | 595

2

20.03.2017 21:38

PsyChill, Ambient Dub (Downtempo, Psydub, World) Monkey Puzzle - The Multi-Dimensional Satchel (EP) (2016) [MP3, 320 kbps CBR] Darkferse
1 | 0

0 | 585

2

20.04.2017 10:57

PsyChill, Ambient Dub (Downtempo, PsyChill, World) Isea-N - World (2016) [MP3, 320 kbps CBR] Darkferse
2 | 0

0 | 590

1

22.04.2017 21:08

PsyChill, Ambient Dub (Downtempo, Dub) The Bitzpan - More Than Cotton (EP) (2017) [MP3, 320 kbps CBR] Darkferse
1 | 0

0 | 587

1

19.05.2017 13:56

PsyChill, Ambient Dub (Downtempo, PsyChill, Ambient) Eguana - Inevitability (2017) [MP3, 320 kbps CBR] Darkferse
1 | 0

0 | 590

5

18.09.2017 12:29

PsyChill, Ambient Dub (Downtempo, Ambient, Dub, Psychill) Shpongle - Codex VI (2017) [MP3, 320 kbps CBR] Darkferse
51 | 3

0 | 528

8

26.10.2017 22:40

PsyChill, Ambient Dub (Downtempo, Dub, Psychill) Cosmic Trigger - The Hallucinatory Mountain (2017) [MP3, 320 kbps CBR] Darkferse
5 | 1

0 | 518

5

09.12.2017 19:56

House (Downtempo, House, Leftfield) D-Pulse - Serpentine (2017) [MP3, 320 kbps CBR] Darkferse
11 | 0

0 | 1022

4

07.04.2017 22:09

8ad_R060d Пол:Муж

19-Авг-2013 06:43

Господа!
Не затруднит ли Вас посидировать вечером/ночью?

srgsv 

23-Май-2016 19:28

Встаньте на раздачу плиз!

8ad_R060d Пол:Муж

24-Май-2016 05:55

Сегодня постараюсь залить обнову, там релизы 2006-2015 годов. Эта уже устарела..

31-Янв-2018 21:14

Топик был перенесен из форума Chillout, Lounge, Downtempo (Lossless) в форум Архив (HQ электронная музыка)


[cron robot]
 

Яндекс.Метрика powered by Sphinx


В Н И М А Н И Е
Сайт не распространяет и не хранит электронные версии произведений, а лишь бесплатно и без коммерческой выгоды (не требуя взамен платы,
SMS и т.д.) предоставляет доступ к создаваемому пользователями каталогу ссылок на торрент-файлы, которые содержат только списки хеш-сумм.
Убедительная просьба с жалобами обращаться напрямую к пользователю, разместившему торрент файл.

Вверх