Loading...
Error

(Trance, House) DJ Kris O'Neil - In Trance We Trust 019 (2012) [FLAC (Tracks+.CUE), lossless]

Статистика раздачи
Размер:  540 MB   |    Зарегистрирован:  5 лет 9 месяцев   |    Скачан:  8 раз

Полного источника не было: 4 года 6 месяцев

Сидов:  0  |  0 KB/s  ]   Личеров:  0  |  0 KB/s  ]

* - сиды/пиры с внешних источников

   
 
Автор Сообщение

Jimmy Пол:Муж

20-Сен-2012 05:21

DJ Kris O'Neil - In Trance We Trust 019

Жанр: Trance, House
Год выпуска: 2012
Производитель диска: In Trance We Trust
Аудиокодек: FLAC
Тип рипа: Tracks+.CUE
Битрейт аудио: lossless
Продолжительность: 01:11:31
Треклист:
01. The Attic feat. Oh Laura - Release Me (Dr. Kucho! Remix) (5:06)
02. Allure feat. Henrik B - Mariestad (Kiholm & Kris O'Neil Remix) (4:20)
03. Cosmic Gate & Jes - Flying Blind (Tom Fall Remix) (4:31)
04. Motif ft. Hannah Magenta - Never Let Go (Boyan & Boyer Remix) (3:28)
05. George Acosta - To The Sky (Gerry Cueto Remix) (3:57)
06. Marc Marberg with Kyau & Albert - Robotron (3:13)
07. Mat Zo feat. Linnea Schossow - The Sky (3:12)
08. Daniel Wanrooy & Blake Lewis - Stay In The Moment (Alex Kunnari Remix) (5:26)
09. Danilo Ercole feat. Roberta Harrison & Steven Taetz - Meet You Where You Are (Ryan Mendoza Main Room Mix) (4:27)
10. Maor Levi - Won't Say No (4:33)
11. Andain - Much Too Much (Mike Shiver Remix) (5:28)
12. Andy Duguid feat. Shannon Hurley - I Want To Believe (5:47)
13. Marc Simz - Forbidden City (Marc Simz & Aerofoil Re-Rub) (5:05)
14. Joint Operations Centre & Full Tilt - Full Gear (2:40)
15. Marcel Woods - The Bottle (Marcus Schossow Remix) (4:36)
16. Bobina - Diamond Hell (Wezz Devall Remix) (5:43)
Exact Audio Copy V1.0 beta 3 from 29. August 2011
EAC extraction logfile from 9. July 2012, 19:53
Various Artists / In Trance We Trust 019 - Kris O'Neil
Used drive : HL-DT-STDVD+-RW GSA-H31N Adapter: 0 ID: 2
Read mode : Secure
Utilize accurate stream : Yes
Defeat audio cache : Yes
Make use of C2 pointers : No
Read offset correction : 102
Overread into Lead-In and Lead-Out : No
Fill up missing offset samples with silence : Yes
Delete leading and trailing silent blocks : No
Null samples used in CRC calculations : Yes
Used interface : Native Win32 interface for Win NT & 2000
Gap handling : Appended to previous track
Used output format : User Defined Encoder
Selected bitrate : 1024 kBit/s
Quality : High
Add ID3 tag : No
Command line compressor : E:\Program Files (x86)\Exact Audio Copy\Flac\flac.exe
Additional command line options : -8 -V -T "ARTIST=%artist%" -T "TITLE=%title%" -T "ALBUM=%albumtitle%" -T "DATE=%year%" -T "TRACKNUMBER=%tracknr%" -T "GENRE=%genre%" -T "PERFORMER=%albuminterpret%" -T "COMPOSER=%composer%" %haslyrics%--tag-from-file=LYRICS="%lyricsfile%"%haslyrics% -T "ALBUMARTIST=%albumartist%" -T "DISCNUMBER=%cdnumber%" -T "TOTALDISCS=%totalcds%" -T "TOTALTRACKS=%numtracks%" -T "COMMENT=%comment%" %source% -o %dest%
TOC of the extracted CD
Track | Start | Length | Start sector | End sector
---------------------------------------------------------
1 | 0:00.00 | 5:05.56 | 0 | 22930
2 | 5:05.56 | 4:20.24 | 22931 | 42454
3 | 9:26.05 | 4:31.06 | 42455 | 62785
4 | 13:57.11 | 3:27.53 | 62786 | 78363
5 | 17:24.64 | 3:57.15 | 78364 | 96153
6 | 21:22.04 | 3:12.40 | 96154 | 110593
7 | 24:34.44 | 3:12.36 | 110594 | 125029
8 | 27:47.05 | 5:25.58 | 125030 | 149462
9 | 33:12.63 | 4:26.42 | 149463 | 169454
10 | 37:39.30 | 4:32.42 | 169455 | 189896
11 | 42:11.72 | 5:27.59 | 189897 | 214480
12 | 47:39.56 | 5:47.05 | 214481 | 240510
13 | 53:26.61 | 5:05.19 | 240511 | 263404
14 | 58:32.05 | 2:39.67 | 263405 | 275396
15 | 61:11.72 | 4:36.12 | 275397 | 296108
16 | 65:48.09 | 5:43.09 | 296109 | 321842
Track 1
Filename E:\New Flacs EAC 1.0 Beta 3\01 - The Attic ft. Oh Laura - Release Me (Dr. Kucho! Remix).wav
Pre-gap length 0:00:02.00
Peak level 100.0 %
Extraction speed 1.5 X
Track quality 99.9 %
Test CRC 32057A6A
Copy CRC 32057A6A
Track not present in AccurateRip database
Copy OK
Track 2
Filename E:\New Flacs EAC 1.0 Beta 3\02 - Allure ft. Henrik B - Mariestad (Kiholm & Kris O'Neil Remix).wav
Peak level 100.0 %
Extraction speed 1.9 X
Track quality 100.0 %
Test CRC EC90B209
Copy CRC EC90B209
Track not present in AccurateRip database
Copy OK
Track 3
Filename E:\New Flacs EAC 1.0 Beta 3\03 - Cosmic Gate & Jes - Flying Blind (Tom Fall Remix).wav
Peak level 100.0 %
Extraction speed 2.0 X
Track quality 100.0 %
Test CRC F5AE8508
Copy CRC F5AE8508
Track not present in AccurateRip database
Copy OK
Track 4
Filename E:\New Flacs EAC 1.0 Beta 3\04 - Motif ft. Hannah Magenta - Never Let Go (Boyan & Boyer Remix).wav
Peak level 100.0 %
Extraction speed 2.0 X
Track quality 100.0 %
Test CRC 28184243
Copy CRC 28184243
Track not present in AccurateRip database
Copy OK
Track 5
Filename E:\New Flacs EAC 1.0 Beta 3\05 - George Acosta - To The Sky (Gerry Cueto Remix).wav
Peak level 100.0 %
Extraction speed 2.2 X
Track quality 100.0 %
Test CRC BE6F39DC
Copy CRC BE6F39DC
Track not present in AccurateRip database
Copy OK
Track 6
Filename E:\New Flacs EAC 1.0 Beta 3\06 - Marc Marberg with Kyau & Albert - Robotron.wav
Peak level 100.0 %
Extraction speed 1.9 X
Track quality 99.9 %
Test CRC 84B7B912
Copy CRC 84B7B912
Track not present in AccurateRip database
Copy OK
Track 7
Filename E:\New Flacs EAC 1.0 Beta 3\07 - Mat Zo ft. Linnea Schossow - The Sky.wav
Peak level 100.0 %
Extraction speed 2.3 X
Track quality 100.0 %
Test CRC 47025137
Copy CRC 47025137
Track not present in AccurateRip database
Copy OK
Track 8
Filename E:\New Flacs EAC 1.0 Beta 3\08 - Daniel Wanrooy & Blake Lewis - Stay In The Moment (Alex Kunnari Remix).wav
Peak level 100.0 %
Extraction speed 2.6 X
Track quality 100.0 %
Test CRC 1D5C210F
Copy CRC 1D5C210F
Track not present in AccurateRip database
Copy OK
Track 9
Filename E:\New Flacs EAC 1.0 Beta 3\09 - Danilo Ercole ft. Roberta Harrison & Steven Taetz - Meet You Where You Are (Ryan Mendoza Main Room Mix).wav
Peak level 100.0 %
Extraction speed 2.4 X
Track quality 99.9 %
Test CRC 5793879E
Copy CRC 5793879E
Track not present in AccurateRip database
Copy OK
Track 10
Filename E:\New Flacs EAC 1.0 Beta 3\10 - Maor Levi - Won't Say No.wav
Peak level 100.0 %
Extraction speed 2.5 X
Track quality 99.9 %
Test CRC 13AA30DB
Copy CRC 13AA30DB
Track not present in AccurateRip database
Copy OK
Track 11
Filename E:\New Flacs EAC 1.0 Beta 3\11 - Andain - Much Too Much (Mike Shiver Remix).wav
Peak level 100.0 %
Extraction speed 3.0 X
Track quality 100.0 %
Test CRC D15DF105
Copy CRC D15DF105
Track not present in AccurateRip database
Copy OK
Track 12
Filename E:\New Flacs EAC 1.0 Beta 3\12 - Andy Duguid ft. Shannon Hurley - I Want To Believe.wav
Peak level 100.0 %
Extraction speed 3.2 X
Track quality 100.0 %
Test CRC 3B88D4D3
Copy CRC 3B88D4D3
Track not present in AccurateRip database
Copy OK
Track 13
Filename E:\New Flacs EAC 1.0 Beta 3\13 - Marc Simz - Forbidden City (Marc Simz & Aerofoil Re-Rub).wav
Peak level 100.0 %
Extraction speed 3.3 X
Track quality 100.0 %
Test CRC 832B1BF5
Copy CRC 832B1BF5
Track not present in AccurateRip database
Copy OK
Track 14
Filename E:\New Flacs EAC 1.0 Beta 3\14 - Joint Operations Centre & Full Tilt - Full Gear.wav
Peak level 100.0 %
Extraction speed 3.0 X
Track quality 100.0 %
Test CRC 9C2EE903
Copy CRC 9C2EE903
Track not present in AccurateRip database
Copy OK
Track 15
Filename E:\New Flacs EAC 1.0 Beta 3\15 - Marcel Woods - The Bottle (Marcus Schossow Remix).wav
Peak level 100.0 %
Extraction speed 3.4 X
Track quality 100.0 %
Test CRC 555B2443
Copy CRC 555B2443
Track not present in AccurateRip database
Copy OK
Track 16
Filename E:\New Flacs EAC 1.0 Beta 3\16 - Bobina - Diamond Hell (Wezz Devall Remix).wav
Peak level 100.0 %
Extraction speed 3.6 X
Track quality 100.0 %
Test CRC 5EDD8DE9
Copy CRC 5EDD8DE9
Track not present in AccurateRip database
Copy OK
None of the tracks are present in the AccurateRip database
No errors occurred
End of status report
==== Log checksum 6BC726DA0FE5F78C9EE683AEE7A6238367E048A8275A70DB5F05AD321E5AEE26 ====

Этот торрент недоступен для скачивания без регистрации, однако доступен по публичной magnet-ссылке (источники с публичных трекеров). Перед использованием ссылки прочтите, пожалуйста Пользовательское соглашение, а также как можно дольше оставайтесь на раздаче! Для того, чтобы скачать сам торрент-файл (который видит больше источников), а также для того, чтобы поблагодарить релизера, вам необходимо зарегистрироваться. Если регистрироваться лень - вы можете также попробовать скачать релиз по нашим партнерским ссылкам ниже. Кроме того, зарегистрированным пользователям не показывается всплывающая реклама при скачивании.

[underverse.su].t20002.torrent
Трекер: Зарегистрирован   [ 20.09.2012 05:21 ]  

Статус: проверено (by Jimmy at 20.09.2012 05:22)
Поблагодарили: 1 человек
Тип торрента: публичный - доступные источники с открытых трекеров: 
Размер: 540 MB (занимает 0,12 DVDR, для записи нужно 1 болванка DVDR/RW)
 
 
Похожие темы
Форум Тема Автор Торрент Отв. Посл. сооб.
Trance (Trance, House, Ambient) Chicane - Twenty (2016) [MP3, 320 kbps] ANDRAKO
15 | 0

0 | 759

5

19.12.2016 16:21

Trance (Trance, House) Max Freegrant - Wonderful Life (2017) [MP3, 320 kbps CBR] Darkferse
1 | 0

0 | 517

2

25.05.2017 09:36

Сборники (Trance, House) VA - Global DJ Broadcast Top 20 January 2016 (2016) [MP3, 320 kbps] ANDRAKO
6 | 0

0 | 428

1

07.11.2016 19:27

Сборники (Trance, Hard Trance) VA - Tunnel Trance Force: Best Of Vol.67 (2014) [MP3, 320 kbps CBR] WEB IronMan
0 | 0

2 | 1007

4

06.02.2014 17:04

Сборники (Trance, House) VA - Dream Dance Vol.84 (2018) [MP3, 320 kbps CBR] Evgenii82
3 | 0

0 | 326

5

10.01.2018 21:24

Сборники (Trance, House, Progressive) VA - Future Trance Vol.84 [3CD] (2018) [MP3, 320 kbps] Evgenii82
7 | 1

0 | 98

5

13.06.2018 14:00

Trance, GoaTrance, PsyTrance (Lossless) (Trance, House) Paul Oakenfold - Generations: Three Decades of Dance (2017) [FLAC (Tracks+.CUE), lossless] Darkferse
3 | 1

0 | 901

10

18.09.2017 10:12

Trance, GoaTrance, PsyTrance (Lossless) (Trance, Hard Trance, Tech Trance) CJ Stone - Into The Sea (Maxi-Single) (2001) [FLAC (Tracks+.Cue), Lossless] Бишеп
5 | 0

0 | 293

2

11.04.2018 16:11

Архив (электронная музыка) (Trance, House, Electro) IgVin - Dance club energy Vol.2 (2010) [MP3, 320 kbps] GanibalKing
0 | 0

1 | 1009

1

12.11.2010 23:48

Архив (электронная музыка) (Trance, House, Electro) IgVin - Dance club energy Vol.1 (2010) [MP3, 320 kbps] GanibalKing
0 | 0

1 | 1070

0

12.11.2010 23:48

31-Янв-2018 21:14

Топик был перенесен из форума Trance, GoaTrance, PsyTrance (Lossless) в форум Архив (HQ электронная музыка)


[cron robot]
 

Яндекс.Метрика powered by Sphinx


В Н И М А Н И Е
Сайт не распространяет и не хранит электронные версии произведений, а лишь бесплатно и без коммерческой выгоды (не требуя взамен платы,
SMS и т.д.) предоставляет доступ к создаваемому пользователями каталогу ссылок на торрент-файлы, которые содержат только списки хеш-сумм.
Убедительная просьба с жалобами обращаться напрямую к пользователю, разместившему торрент файл.

Вверх