Loading...
Error

(Electro, Darkwave) In Strict Confidence - Morpheus (2012) [FLAC (Tracks+.CUE), lossless]

Статистика раздачи
Размер:  374 MB   |    Зарегистрирован:  5 лет 9 месяцев   |    Скачан:  3 раза

Полного источника не было: 1 месяц 6 дней

Сидов:  0  |  0 KB/s  ]   Личеров:  0  |  0 KB/s  ]

* - сиды/пиры с внешних источников

   
 
Автор Сообщение

Jimmy Пол:Муж

21-Сен-2012 18:34

In Strict Confidence - Morpheus

Жанр: Electro, Darkwave
Год выпуска: 2012
Производитель диска: Germany
Аудиокодек: FLAC
Тип рипа: Tracks+.CUE
Битрейт аудио: lossless
Продолжительность: 00:43:54
Треклист:
01. Morpheus 3:49
02. Morpheus (Club Mix) 6:22
03. Morpheus (Hecq Remix) 4:19
04. Salvation 4:25
05. Morpheus (Extended Version) 11:16
06. Morpheus (Haujobb Remix) 5:27
07. Morpheus (Diorama Remix) 4:32
08. Morpheus (Anglijskaya Versiya) 3:18

Код:

Exact Audio Copy V1.0 beta 3 from 29. August 2011
Отчёт EAC об извлечении, выполненном 1. августа 2012, 21:00
In Strict Confidence / Morpheus
Дисковод: PIONEER DVD-RW  DVR-XD10   Adapter: 1  ID: 0
Режим чтения                 : Достоверность
Использование точного потока : Да
Отключение кэша аудио        : Да
Использование указателей C2  : Нет
Коррекция смещения при чтении                     : 96
Способность читать области Lead-in и Lead-out     : Нет
Заполнение пропущенных сэмплов тишиной            : Да
Удаление блоков с тишиной в начале и конце        : Нет
При вычислениях CRC использовались нулевые сэмплы : Да
Интерфейс                                         : Встроенный Win32-интерфейс для Win NT/2000
Выходной формат          : Пользовательский кодировщик
Выбранный битрейт        : 1024 kBit/s
Качество                 : Высокий
Добавление ID3-тега      : Нет
Утилита сжатия           : C:\Program Files\Exact Audio Copy\FLAC\FLAC.EXE
Дополнительные параметры : -V -8 -T "Date=%year%" -T "Genre=%genre%" %source%
TOC извлечённого CD
     Трек |   Старт  | Длительность | Начальный сектор | Конечный сектор
    ---------------------------------------------------------------------
       1  |  0:00.00 |    3:51.42   |           0      |      17366
       2  |  3:51.42 |    6:25.64   |       17367      |      46305
       3  | 10:17.31 |    4:20.64   |       46306      |      65869
       4  | 14:38.20 |    4:30.41   |       65870      |      86160
       5  | 19:08.61 |   11:19.09   |       86161      |     137094
       6  | 30:27.70 |    5:30.41   |      137095      |     161885
       7  | 35:58.36 |    4:35.74   |      161886      |     182584
       8  | 40:34.35 |    3:19.65   |      182585      |     197574
Характеристики диапазона извлечения и сообщения об ошибках
Выбранный диапазон
     Имя файла C:\Users\Алексей\Desktop\iPOD\In Strict Confidence - Morpheus.wav
     Пиковый уровень 99.9 %
     Скорость извлечения 3.8 X
     Качество диапазона 100.0 %
     CRC теста 138EF9B5
     CRC копии 138EF9B5
     Копирование... OK
Ошибок не произошло
AccurateRip: сводка
Трек  1  отсутствует в базе данных
Трек  2  отсутствует в базе данных
Трек  3  отсутствует в базе данных
Трек  4  отсутствует в базе данных
Трек  5  отсутствует в базе данных
Трек  6  отсутствует в базе данных
Трек  7  отсутствует в базе данных
Трек  8  отсутствует в базе данных
Ни одного трека нет в базе AccurateRip
Конец отчёта
==== Контрольная сумма отчёта CFAF92676625F3ECDB35AE3F251DABA6B7814FB1186746A6E0285D4F7AE19087 ====

Этот торрент недоступен для скачивания без регистрации, однако доступен по публичной magnet-ссылке (источники с публичных трекеров). Перед использованием ссылки прочтите, пожалуйста Пользовательское соглашение, а также как можно дольше оставайтесь на раздаче! Для того, чтобы скачать сам торрент-файл (который видит больше источников), а также для того, чтобы поблагодарить релизера, вам необходимо зарегистрироваться. Если регистрироваться лень - вы можете также попробовать скачать релиз по нашим партнерским ссылкам ниже. Кроме того, зарегистрированным пользователям не показывается всплывающая реклама при скачивании.

[underverse.su].t20042.torrent
Трекер: Зарегистрирован   [ 21.09.2012 18:34 ]  

Статус: проверено (by Jimmy at 21.09.2012 18:34)
Поблагодарили: пока никто не поблагодарил...
Тип торрента: публичный - доступные источники с открытых трекеров: 
Размер: 374 MB (занимает 0,08 DVDR, для записи нужно 1 болванка DVDR/RW)
 
 
Похожие темы
Форум Тема Автор Торрент Отв. Посл. сооб.
Зарубежная Pop Музыка (Electro, Pop, Soul) Sam Smith - Nirvana-EP (2014) [MP3, 320 kbps] 90ytr90
1 | 0

0 | 382

3

11.11.2016 14:59

Techno (Electro, Techno, Experimental) Dopplereffekt - Cellular Automata (2017) [MP3, 320 kbps CBR] Darkferse
6 | 0

0 | 750

2

09.04.2017 00:04

Techno (Electro, Techno) U96 - Das Boot 2017 (2017) [MP3, 320 kbps CBR] Darkferse
5 | 1

0 | 621

4

10.09.2017 09:41

Electro, Breakbeat, Dubstep (Electro, IDM, Techno) DMX Krew - Strange Directions (2017) [MP3, 320 kbps CBR] Darkferse
5 | 0

0 | 465

2

05.09.2017 14:17

Electro, Breakbeat, Dubstep (Electro, Tech House) Fatima Yamaha - Imaginary Lines (2015) [MP3, 320 kbps CBR] Darkferse
5 | 0

0 | 239

4

10.01.2018 20:35

EBM, Industrial, Dark Electro, Darkwave, Gothic Synth (Electro, EBM, Techno, Industrial) Nachtmahr - Unbeugsam (Best Of & Rarities 2007-2017) (2017) [MP3, 320 kbps] ANDRAKO
9 | 0

0 | 857

3

24.02.2017 11:08

Synthpop, Futurepop, Electropop, Spacesynth (Electro, Synthpop, Synthwave) Analog 80 - Discography (2013-2017) [MP3, 320 kbps CBR] Darkferse
7 | 0

0 | 412

3

08.01.2018 20:32

Сборники (Electro, EBM, Industrial) VA - Album of the Year (2016) [MP3, 320 kbps] ANDRAKO
3 | 0

0 | 678

4

09.01.2017 11:02

Electro, Breakbeat (Lossless) (Electro, Breakbeat, Techno) Terranova - Peace Is Tough (2003) [FLAC (image+.cue), lossless] 8ad_R060d
3 | 0

0 | 1776

5

24.03.2014 11:10

Trip Hop, Abstract Hip-Hop (Lossless) (Electro, Trip Hop) Terranova - Digital Tenderness - (2004) [FLAC (image+.cue), lossless] 8ad_R060d
2 | 0

0 | 1761

2

24.03.2014 10:33


Яндекс.Метрика powered by Sphinx


В Н И М А Н И Е
Сайт не распространяет и не хранит электронные версии произведений, а лишь бесплатно и без коммерческой выгоды (не требуя взамен платы,
SMS и т.д.) предоставляет доступ к создаваемому пользователями каталогу ссылок на торрент-файлы, которые содержат только списки хеш-сумм.
Убедительная просьба с жалобами обращаться напрямую к пользователю, разместившему торрент файл.

Вверх