Loading...
Error

(Punk Rock) Сектор Газа - Нажми на газ (1994) [FLAC (Image+.CUE), Lossless]

Статистика раздачи
Размер:  377 MB   |    Зарегистрирован:  1 год 2 месяца   |    Скачан:  0 раз

Полного источника не было: 12 часов

Сидов:  0  |  0 KB/s  ]   Личеров:  0  |  0 KB/s  ]

* - сиды/пиры с внешних источников

   
 
Автор Сообщение

Бишеп Пол:Муж

01-Ноя-2012 07:07

Сектор Газа - Нажми на газ

Жанр: Punk Rock
Год выпуска: 1994
Источник: CD
Производитель диска: GALA Records - GL 10173
Аудиокодек: FLAC
Тип рипа: Image+.CUE
Битрейт аудио: lossless
Продолжительность: 00:45:06


Треклист:
01. Нажми на газ
02. Кабак
03. Подвал
04. Девушка
05. Суд
06. Взял вину на себя
07. Оборотень
08. Мажор
09. Лирика
10. Дурак
11. Тёща
12. Мумия
13. Репетиция

Код:

Exact Audio Copy V1.0 beta 3 from 29. August 2011

EAC extraction logfile from 7. April 2017, 23:23

Сектор Газа / Нажми на газ

Used drive  : HL-DT-STDVDRAM GSA-T10N   Adapter: 0  ID: 0

Read mode               : Secure
Utilize accurate stream : Yes
Defeat audio cache      : Yes
Make use of C2 pointers : No

Read offset correction                      : 667
Overread into Lead-In and Lead-Out          : No
Fill up missing offset samples with silence : Yes
Delete leading and trailing silent blocks   : No
Null samples used in CRC calculations       : Yes
Used interface                              : Installed external ASPI interface

Used output format              : User Defined Encoder
Selected bitrate                : 1024 kBit/s
Quality                         : High
Add ID3 tag                     : No
Command line compressor         : D:\Program Files\Exact Audio Copy\Flac\flac.exe
Additional command line options : -V -8 -T "Genre=%genre%" -T "Artist=%artist%" -T "Title=%title%" -T "Album=%albumtitle%" -T "Date=%year%" -T "Tracknumber=%tracknr%" -T "Comment=%comment%" %source%

TOC of the extracted CD

     Track |   Start  |  Length  | Start sector | End sector
    ---------------------------------------------------------
        1  |  0:00.00 |  1:56.05 |         0    |     8704   
        2  |  1:56.05 |  3:52.25 |      8705    |    26129   
        3  |  5:48.30 |  3:06.60 |     26130    |    40139   
        4  |  8:55.15 |  3:17.25 |     40140    |    54939   
        5  | 12:12.40 |  3:56.67 |     54940    |    72706   
        6  | 16:09.32 |  3:14.68 |     72707    |    87324   
        7  | 19:24.25 |  3:34.15 |     87325    |   103389   
        8  | 22:58.40 |  0:50.17 |    103390    |   107156   
        9  | 23:48.57 |  4:20.20 |    107157    |   126676   
       10  | 28:09.02 |  3:22.40 |    126677    |   141866   
       11  | 31:31.42 |  3:47.60 |    141867    |   158951   
       12  | 35:19.27 |  4:38.50 |    158952    |   179851   
       13  | 39:58.02 |  5:07.43 |    179852    |   202919   

Range status and errors

Selected range

     Filename D:\Desktop\Сектор Газа - Нажми на газ (1994)\Сектор Газа - Нажми на газ.wav

     Peak level 87.6 %
     Extraction speed 3.6 X
     Range quality 100.0 %
     Test CRC 6BFE3704
     Copy CRC 6BFE3704
     Copy OK

No errors occurred

 
AccurateRip summary
 
Track  1  accurately ripped (confidence 2)  [715A215F]  (AR v2)
Track  2  accurately ripped (confidence 2)  [B474DA8A]  (AR v2)
Track  3  accurately ripped (confidence 2)  [96A4B050]  (AR v2)
Track  4  accurately ripped (confidence 2)  [7FFEBEAA]  (AR v2)
Track  5  accurately ripped (confidence 2)  [2FE858C4]  (AR v2)
Track  6  accurately ripped (confidence 2)  [7C80F020]  (AR v2)
Track  7  accurately ripped (confidence 2)  [7E0B6C19]  (AR v2)
Track  8  accurately ripped (confidence 2)  [1A71C585]  (AR v2)
Track  9  accurately ripped (confidence 2)  [F92150B4]  (AR v2)
Track 10  accurately ripped (confidence 2)  [23F15CDA]  (AR v2)
Track 11  accurately ripped (confidence 2)  [01CD4474]  (AR v2)
Track 12  accurately ripped (confidence 2)  [21563EBD]  (AR v2)
Track 13  accurately ripped (confidence 2)  [FE2A260E]  (AR v2)
 
All tracks accurately ripped

End of status report

==== Log checksum BAA5E42E2AC87AEF1BBD13402759647DC159C5D92A11648937C0DDFA194FD3AF ====

Код:

REM GENRE "Punk Rock"
REM DATE 1994
REM DISCID 960A910D
REM COMMENT "ExactAudioCopy v1.0b3"
PERFORMER "Сектор Газа"
TITLE "Нажми на газ"
FILE "Сектор Газа - Нажми на газ.flac" WAVE
  TRACK 01 AUDIO
    TITLE "Нажми на газ"
    PERFORMER "Сектор Газа"
    INDEX 01 00:00:00
  TRACK 02 AUDIO
    TITLE "Кабак"
    PERFORMER "Сектор Газа"
    INDEX 00 01:56:01
    INDEX 01 01:56:05
  TRACK 03 AUDIO
    TITLE "Подвал"
    PERFORMER "Сектор Газа"
    INDEX 01 05:48:30
  TRACK 04 AUDIO
    TITLE "Девушка"
    PERFORMER "Сектор Газа"
    INDEX 01 08:55:15
  TRACK 05 AUDIO
    TITLE "Суд"
    PERFORMER "Сектор Газа"
    INDEX 00 12:12:37
    INDEX 01 12:12:40
  TRACK 06 AUDIO
    TITLE "Взял вину на себя"
    PERFORMER "Сектор Газа"
    INDEX 01 16:09:32
  TRACK 07 AUDIO
    TITLE "Оборотень"
    PERFORMER "Сектор Газа"
    INDEX 00 19:24:22
    INDEX 01 19:24:25
  TRACK 08 AUDIO
    TITLE "Мажор"
    PERFORMER "Сектор Газа"
    INDEX 01 22:58:40
  TRACK 09 AUDIO
    TITLE "Лирика"
    PERFORMER "Сектор Газа"
    INDEX 01 23:48:57
  TRACK 10 AUDIO
    TITLE "Дурак"
    PERFORMER "Сектор Газа"
    INDEX 01 28:09:02
  TRACK 11 AUDIO
    TITLE "Теща"
    PERFORMER "Сектор Газа"
    INDEX 01 31:31:42
  TRACK 12 AUDIO
    TITLE "Мумия"
    PERFORMER "Сектор Газа"
    INDEX 01 35:19:27
  TRACK 13 AUDIO
    TITLE "Репетиция"
    PERFORMER "Сектор Газа"
    INDEX 01 39:58:02

Этот торрент недоступен для скачивания без регистрации, однако доступен по публичной magnet-ссылке (источники с публичных трекеров). Перед использованием ссылки прочтите, пожалуйста Пользовательское соглашение, а также как можно дольше оставайтесь на раздаче! Для того, чтобы скачать сам торрент-файл (который видит больше источников), а также для того, чтобы поблагодарить релизера, вам необходимо зарегистрироваться. Если регистрироваться лень - вы можете также попробовать скачать релиз по нашим партнерским ссылкам ниже. Кроме того, зарегистрированным пользователям не показывается всплывающая реклама при скачивании.

[underverse.me].t81870.torrent
Трекер: Зарегистрирован   [ 28.04.2017 06:42 ]  

Статус: проверено (by Бишеп at 28.04.2017 06:43)
Поблагодарили: 1 человек
Тип торрента: публичный - доступные источники с открытых трекеров: 
Размер: 377 MB (занимает 0,08 DVDR, для записи нужно 1 болванка DVDR/RW)
 
 
Похожие темы
Форум Тема Автор Торрент Отв. Посл. сооб.
Зарубежный Punk, Hardcore, Grunge, Alternative (Punk Rock/Street Punk) BRDigung - In Goldenen Ketten (2014) [MP3, 320 kbps] Jimmy
1 | 0

0 | 1062

4

23.04.2014 16:00

Зарубежный Punk, Hardcore, Grunge, Alternative (Punk Rock/Heavy Punk) Desakato - Buen Viaje (2014) [MP3, 320 kbps] Jimmy
1 | 0

0 | 802

5

23.04.2014 15:53

Зарубежный Punk, Hardcore, Grunge, Alternative (Punk Rock) Richie Ramone - Entitled [ex-Ramones] (2013) [MP3, 320 kbps] Jimmy
2 | 0

0 | 2034

2

21.12.2013 08:03

Зарубежный Punk, Hardcore, Grunge, Alternative (Punk Rock/Old School Pop Punk) The Bugs - 2 альбома (The Bugs/Missile To The Middle East) (2008/2013) [MP3, 320 kbps] Jimmy
0 | 0

0 | 2133

0

21.12.2013 08:06

Зарубежный Punk, Hardcore, Grunge, Alternative (Punk Rock) The So So Glos - Blowout (2013) [MP3, 320 kbps] Jimmy
1 | 0

0 | 1831

1

04.01.2014 10:17

Зарубежный Punk, Hardcore, Grunge, Alternative (Punk Rock | Melodic Hardcore) Noopinion - No Chains For Change (2013) [MP3, 320 kbps] Jimmy
1 | 0

0 | 1773

2

04.01.2014 14:20

Зарубежный Punk, Hardcore, Grunge, Alternative (Punk Rock) Stiff Little Fingers - No Going Back (2014) [MP3, 320 kbps] Jimmy
1 | 5

0 | 1764

5

23.03.2014 05:20

Зарубежный Punk, Hardcore, Grunge, Alternative (Punk Rock, Skate Punk, Melodic Punk) Authority Zero - Broadcasting To The Nations (2017) [MP3, 320 kbps CBR] Darkferse
1 | 0

0 | 838

2

02.06.2017 15:14

Зарубежный Punk, Hardcore, Grunge, Alternative (Punk Rock, Reggae) Anti-Nowhere League - League Style (Loosen Up Volume 1) (2017) [MP3, 320 kbps CBR] Darkferse
1 | 0

0 | 440

1

05.06.2017 23:58

Зарубежный Punk, Hardcore, Grunge, Alternative (Punk Rock) Beatsteaks - YOURS (2017) [MP3, 320 kbps CBR] Darkferse
6 | 1

0 | 503

1

06.09.2017 10:18


Яндекс.Метрика powered by Sphinx


В Н И М А Н И Е
Сайт не распространяет и не хранит электронные версии произведений, а лишь бесплатно и без коммерческой выгоды (не требуя взамен платы,
SMS и т.д.) предоставляет доступ к создаваемому пользователями каталогу ссылок на торрент-файлы, которые содержат только списки хеш-сумм.
Убедительная просьба с жалобами обращаться напрямую к пользователю, разместившему торрент файл.

Вверх