Loading...
Error

(Pop) Мираж - Снова в месте (1989) [DTS 5.1 (Image+CUE), lossless]

Статистика раздачи
Размер:  457 MB   |    Зарегистрирован:  5 лет 7 месяцев   |    Скачан:  31 раз

Полного источника не было: 1 месяц 19 дней

Сидов:  0  |  0 KB/s  ]   Личеров:  0  |  0 KB/s  ]

* - сиды/пиры с внешних источников

   

Выкладывать ли ещё музыку в 5.1

Да   83%  83%  [ 5 ]
Нет   16%  16%  [ 1 ]

Всего проголосовало : 6

 
Автор Сообщение

Niverprof Пол:Муж

03-Ноя-2012 06:03

Мираж - Снова в месте

Жанр: Pop
Год выпуска: 1989
Производитель диска: J.S.P.
Аудиокодек: DTS
Тип рипа: Image+.CUE
Битрейт аудио: lossless
Продолжительность: 00:45:16

Треклист:

01. Музыка нас связала [0:04:28.61]
02. Наступает ночь [0:04:22.97]
03. Снова в месте [0:05:37.13]
04. Где я [0:04:34.78]
05. Я не шучу [0:03:11.08]
06. Млечный путь [0:04:24.81]
07. Море грез [0:04:06.78]
08. Снежинка [0:02:57.26]
09. Я снова вижу тебя [0:03:48.58]
10. Новый герой [0:03:47.96]
11. Я больше не прошу [0:03:56.66]
Exact Audio Copy V0.99 prebeta 5 from 4. May 2009

Отчёт EAC об извлечении, выполненном 9. января 2010, 6:48

Мираж / Снова в месте

Дисковод: PIONEER DVD-RW DVR-115D Adapter: 0 ID: 0

Режим чтения : Достоверность
Использование точного потока : Да
Отключение кэша аудио : Да
Использование указателей C2 : Нет

Коррекция смещения при чтении : 48
Способность читать области Lead-in и Lead-out : Нет
Заполнение пропущенных сэмплов тишиной : Да
Удаление блоков с тишиной в начале и конце : Нет
При вычислениях CRC использовались нулевые сэмплы : Нет
Интерфейс : Встроенный Win32-интерфейс для Win NT/2000

Выходной формат : Внутренние WAV-операции
Формат сэмплов : 44.100 Гц; 16 бит; стерео
Смещение при сжатии : 0

TOC извлечённого CD

Трек | Старт | Длительность | Начальный сектор | Конечный сектор
---------------------------------------------------------------------
1 | 0:00.00 | 4:28.46 | 0 | 20145
2 | 4:28.46 | 4:22.73 | 20146 | 39868
3 | 8:51.44 | 5:37.10 | 39869 | 65153
4 | 14:28.54 | 4:34.59 | 65154 | 85762
5 | 19:03.38 | 3:11.06 | 85763 | 100093
6 | 22:14.44 | 4:24.61 | 100094 | 119954
7 | 26:39.30 | 4:06.59 | 119955 | 138463
8 | 30:46.14 | 2:57.20 | 138464 | 151758
9 | 33:43.34 | 3:48.44 | 151759 | 168902
10 | 37:32.03 | 3:47.72 | 168903 | 185999
11 | 41:20.00 | 3:56.50 | 186000 | 203749

Характеристики диапазона извлечения и сообщения об ошибках

Выбранный диапазон

Имя файла D:\video\Торенты\кинозал\15\1\Miraj - Snova.v.meste.1989.DTS.CD\Мираж - Снова в месте.wav

Пиковый уровень 25.0 %
Качество диапазона 100.0 %
CRC копии F3A2F5E4
Копирование... OK

Ошибок не произошло

Конец отчёта

Этот торрент недоступен для скачивания без регистрации, однако доступен по публичной magnet-ссылке (источники с публичных трекеров). Перед использованием ссылки прочтите, пожалуйста Пользовательское соглашение, а также как можно дольше оставайтесь на раздаче! Для того, чтобы скачать сам торрент-файл (который видит больше источников), а также для того, чтобы поблагодарить релизера, вам необходимо зарегистрироваться. Если регистрироваться лень - вы можете также попробовать скачать релиз по нашим партнерским ссылкам ниже. Кроме того, зарегистрированным пользователям не показывается всплывающая реклама при скачивании.

[underverse.su].t21038.torrent
Трекер: Зарегистрирован   [ 03.11.2012 06:03 ]  

Статус: проверено (by garry at 03.11.2012 09:13)
Поблагодарили: 1 человек
Тип торрента: публичный - доступные источники с открытых трекеров: 
Размер: 457 MB (занимает 0,1 DVDR, для записи нужно 1 болванка DVDR/RW)
 
 
Похожие темы
Форум Тема Автор Торрент Отв. Посл. сооб.
Отечественная Поп Музыка (Lossless) (Pop) Мираж - The Best Of Greatest Hits (2002) [FLAC (Image+.Cue), Lossless] Бишеп
6 | 1

0 | 1397

23

20.11.2016 14:24

Отечественная Поп Музыка (Lossless) (Pop) Мираж - Снова вместе (1989) [FLAC (Image+.CUE), Lossless] Бишеп
1 | 0

0 | 1310

19

29.04.2012 14:26

Отечественная Поп Музыка (Lossless) (Pop) Мираж - Мираж версия 2000 (1999) [FLAC (Image+.CUE), Lossless] Бишеп
1 | 0

0 | 1467

18

29.04.2012 14:44

Отечественная Поп Музыка (Lossless) (Pop) Мираж - Greatest Hits (1996) [FLAC (Image+.CUE), Lossless] Бишеп
1 | 0

0 | 1888

23

07.12.2012 06:59

Отечественная Поп Музыка (Lossless) (Pop) Мираж - Отпусти меня (2013) [FLAC (Image+.CUE), Lossless] Бишеп
7 | 1

0 | 1195

18

16.04.2014 06:55

31-Янв-2018 20:52

Топик был перенесен из форума Многоканальная Отечественная Поп музыка (DVD-Audio, DTS, SACD) в форум Архив (HQ популярная музыка)


[cron robot]
 

Яндекс.Метрика powered by Sphinx


В Н И М А Н И Е
Сайт не распространяет и не хранит электронные версии произведений, а лишь бесплатно и без коммерческой выгоды (не требуя взамен платы,
SMS и т.д.) предоставляет доступ к создаваемому пользователями каталогу ссылок на торрент-файлы, которые содержат только списки хеш-сумм.
Убедительная просьба с жалобами обращаться напрямую к пользователю, разместившему торрент файл.

Вверх