Loading...
Error

(Punk Rock) Сектор Газа - Наркологический Университет Миллионов (1997) [FLAC (Image+.CUE), Lossless]

Статистика раздачи
Размер:  363 MB   |    Зарегистрирован:  1 год 2 месяца   |    Скачан:  0 раз

Полного источника не было: 2 часа 44 минуты

Сидов:  0  |  0 KB/s  ]   Личеров:  0  |  0 KB/s  ]

* - сиды/пиры с внешних источников

   
 
Автор Сообщение

Бишеп Пол:Муж

20-Ноя-2012 08:50

Сектор Газа - Наркологический Университет Миллионов

Жанр: Punk Rock
Год выпуска: 1007
Источник: CD
Производитель диска: GALA Records GLCD - 1049713-78
Аудиокодек: FLAC
Тип рипа: Image+.CUE
Битрейт аудио: lossless
Продолжительность: 00:45:17


Треклист:
01. Опять сегодня
02. Кусок
03. Новогодняя песня
04. Песенка
05. Похмел
06. Самые лучшие тачки
07. Марш наркоманов (Колумбийская народная песня)
08. Свин
09. Любовь раскумаренная
10. Хорошо в деревне летом
11. Пора домой
12. Звёздная болезнь (Моральным уродам посвящается)
13. Вальпургиева ночь

Код:

Exact Audio Copy V1.3 from 2. September 2016

EAC extraction logfile from 8. April 2017, 8:55

Сектор Газа / Наркологический Университет Миллионов

Used drive  : TSSTcorpCDDVDW SH-224DB   Adapter: 0  ID: 1

Read mode               : Secure
Utilize accurate stream : Yes
Defeat audio cache      : Yes
Make use of C2 pointers : No

Read offset correction                      : 6
Overread into Lead-In and Lead-Out          : No
Fill up missing offset samples with silence : Yes
Delete leading and trailing silent blocks   : No
Null samples used in CRC calculations       : Yes
Used interface                              : Installed external ASPI interface

Used output format              : User Defined Encoder
Selected bitrate                : 1024 kBit/s
Quality                         : High
Add ID3 tag                     : No
Command line compressor         : D:\Program Files\Exact Audio Copy\Flac\flac.exe
Additional command line options : -V -8 -T "Genre=%genre%" -T "Artist=%artist%" -T "Title=%title%" -T "Album=%albumtitle%" -T "Date=%year%" -T "Tracknumber=%tracknr%" -T "Comment=%comment%" %source%

TOC of the extracted CD

     Track |   Start  |  Length  | Start sector | End sector
    ---------------------------------------------------------
        1  |  0:00.00 |  2:22.07 |         0    |    10656   
        2  |  2:22.07 |  2:23.15 |     10657    |    21396   
        3  |  4:45.22 |  2:40.63 |     21397    |    33459   
        4  |  7:26.10 |  3:19.02 |     33460    |    48386   
        5  | 10:45.12 |  3:32.70 |     48387    |    64356   
        6  | 14:18.07 |  3:25.60 |     64357    |    79791   
        7  | 17:43.67 |  3:23.18 |     79792    |    95034   
        8  | 21:07.10 |  4:39.07 |     95035    |   115966   
        9  | 25:46.17 |  4:29.38 |    115967    |   136179   
       10  | 30:15.55 |  3:33.65 |    136180    |   152219   
       11  | 33:49.45 |  3:54.42 |    152220    |   169811   
       12  | 37:44.12 |  3:37.60 |    169812    |   186146   
       13  | 41:21.72 |  3:54.58 |    186147    |   203754   

Range status and errors

Selected range

     Filename D:\Desktop\Сектор Газа - Наркологический Университет Миллионов (1997)\Сектор Газа - Наркологический Университет Миллионов.wav

     Peak level 99.9 %
     Extraction speed 2.9 X
     Range quality 99.9 %
     Test CRC 6CFC58B4
     Copy CRC 6CFC58B4
     Copy OK

No errors occurred

 
AccurateRip summary
 
Track  1  accurately ripped (confidence 2)  [7C8DD87F]  (AR v2)
Track  2  accurately ripped (confidence 2)  [2CE9FDAE]  (AR v2)
Track  3  accurately ripped (confidence 2)  [DEB5E8D9]  (AR v2)
Track  4  accurately ripped (confidence 2)  [ED7099DD]  (AR v2)
Track  5  accurately ripped (confidence 2)  [601C8ECD]  (AR v2)
Track  6  accurately ripped (confidence 2)  [5B5768F6]  (AR v2)
Track  7  accurately ripped (confidence 2)  [E6450C16]  (AR v2)
Track  8  accurately ripped (confidence 2)  [3A694AD1]  (AR v2)
Track  9  accurately ripped (confidence 2)  [809D0E85]  (AR v2)
Track 10  accurately ripped (confidence 2)  [553FFB4B]  (AR v2)
Track 11  accurately ripped (confidence 2)  [A82B4FA5]  (AR v2)
Track 12  accurately ripped (confidence 2)  [C4519FAB]  (AR v2)
Track 13  accurately ripped (confidence 2)  [4048E668]  (AR v2)
 
All tracks accurately ripped

End of status report

==== Log checksum 08ACD0D31BA0B20E0E779701D6AFFFC48E0241C7C3039F18DB8F3AD807AE2C0E ====

Код:

REM GENRE "Punk Rock"
REM DATE 1997
REM DISCID B30A9C0D
REM COMMENT "ExactAudioCopy v1.3"
PERFORMER "Сектор Газа"
TITLE "Наркологический Университет Миллионов"
REM COMPOSER ""
FILE "Сектор Газа - Наркологический Университет Миллионов.flac" WAVE
  TRACK 01 AUDIO
    TITLE "Опять сегодня"
    PERFORMER "Сектор Газа"
    REM COMPOSER ""
    INDEX 01 00:00:00
  TRACK 02 AUDIO
    TITLE "Кусок"
    PERFORMER "Сектор Газа"
    REM COMPOSER ""
    INDEX 01 02:22:07
  TRACK 03 AUDIO
    TITLE "Новогодняя песня"
    PERFORMER "Сектор Газа"
    REM COMPOSER ""
    INDEX 01 04:45:22
  TRACK 04 AUDIO
    TITLE "Песенка"
    PERFORMER "Сектор Газа"
    REM COMPOSER ""
    INDEX 01 07:26:10
  TRACK 05 AUDIO
    TITLE "Похмел"
    PERFORMER "Сектор Газа"
    REM COMPOSER ""
    INDEX 01 10:45:12
  TRACK 06 AUDIO
    TITLE "Самые лучшие тачки"
    PERFORMER "Сектор Газа"
    REM COMPOSER ""
    INDEX 01 14:18:07
  TRACK 07 AUDIO
    TITLE "Марш наркоманов (Колумбийская народная песня)"
    PERFORMER "Сектор Газа"
    REM COMPOSER ""
    INDEX 01 17:43:67
  TRACK 08 AUDIO
    TITLE "Свин"
    PERFORMER "Сектор Газа"
    REM COMPOSER ""
    INDEX 01 21:07:10
  TRACK 09 AUDIO
    TITLE "Любовь раскумаренная"
    PERFORMER "Сектор Газа"
    REM COMPOSER ""
    INDEX 01 25:46:17
  TRACK 10 AUDIO
    TITLE "Хорошо в деревне летом"
    PERFORMER "Сектор Газа"
    REM COMPOSER ""
    INDEX 01 30:15:55
  TRACK 11 AUDIO
    TITLE "Пора домой"
    PERFORMER "Сектор Газа"
    REM COMPOSER ""
    INDEX 01 33:49:45
  TRACK 12 AUDIO
    TITLE "Звёздная болезнь (Моральным уродам посвящается)"
    PERFORMER "Сектор Газа"
    REM COMPOSER ""
    INDEX 01 37:44:12
  TRACK 13 AUDIO
    TITLE "Вальпургиева ночь"
    PERFORMER "Сектор Газа"
    REM COMPOSER ""
    INDEX 01 41:21:72

Этот торрент недоступен для скачивания без регистрации, однако доступен по публичной magnet-ссылке (источники с публичных трекеров). Перед использованием ссылки прочтите, пожалуйста Пользовательское соглашение, а также как можно дольше оставайтесь на раздаче! Для того, чтобы скачать сам торрент-файл (который видит больше источников), а также для того, чтобы поблагодарить релизера, вам необходимо зарегистрироваться. Если регистрироваться лень - вы можете также попробовать скачать релиз по нашим партнерским ссылкам ниже. Кроме того, зарегистрированным пользователям не показывается всплывающая реклама при скачивании.

[underverse.me].t81872.torrent
Трекер: Зарегистрирован   [ 28.04.2017 09:33 ]  

Статус: проверено (by Бишеп at 28.04.2017 09:35)
Поблагодарили: пока никто не поблагодарил...
Тип торрента: публичный - доступные источники с открытых трекеров: 
Размер: 363 MB (занимает 0,08 DVDR, для записи нужно 1 болванка DVDR/RW)
 
 
Похожие темы
Форум Тема Автор Торрент Отв. Посл. сооб.
Зарубежный Punk, Hardcore, Grunge, Alternative (Punk Rock/Street Punk) BRDigung - In Goldenen Ketten (2014) [MP3, 320 kbps] Jimmy
1 | 0

0 | 1059

4

23.04.2014 16:00

Зарубежный Punk, Hardcore, Grunge, Alternative (Punk Rock/Heavy Punk) Desakato - Buen Viaje (2014) [MP3, 320 kbps] Jimmy
1 | 0

0 | 799

5

23.04.2014 15:53

Зарубежный Punk, Hardcore, Grunge, Alternative (Punk Rock) Richie Ramone - Entitled [ex-Ramones] (2013) [MP3, 320 kbps] Jimmy
2 | 0

0 | 2031

2

21.12.2013 08:03

Зарубежный Punk, Hardcore, Grunge, Alternative (Punk Rock/Old School Pop Punk) The Bugs - 2 альбома (The Bugs/Missile To The Middle East) (2008/2013) [MP3, 320 kbps] Jimmy
0 | 0

0 | 2131

0

21.12.2013 08:06

Зарубежный Punk, Hardcore, Grunge, Alternative (Punk Rock) The So So Glos - Blowout (2013) [MP3, 320 kbps] Jimmy
1 | 0

0 | 1831

1

04.01.2014 10:17

Зарубежный Punk, Hardcore, Grunge, Alternative (Punk Rock | Melodic Hardcore) Noopinion - No Chains For Change (2013) [MP3, 320 kbps] Jimmy
1 | 0

0 | 1772

2

04.01.2014 14:20

Зарубежный Punk, Hardcore, Grunge, Alternative (Punk Rock) Stiff Little Fingers - No Going Back (2014) [MP3, 320 kbps] Jimmy
1 | 5

0 | 1761

5

23.03.2014 05:20

Зарубежный Punk, Hardcore, Grunge, Alternative (Punk Rock, Skate Punk, Melodic Punk) Authority Zero - Broadcasting To The Nations (2017) [MP3, 320 kbps CBR] Darkferse
11 | 0

0 | 833

2

02.06.2017 15:14

Зарубежный Punk, Hardcore, Grunge, Alternative (Punk Rock, Reggae) Anti-Nowhere League - League Style (Loosen Up Volume 1) (2017) [MP3, 320 kbps CBR] Darkferse
1 | 0

0 | 439

1

05.06.2017 23:58

Зарубежный Punk, Hardcore, Grunge, Alternative (Punk Rock) Beatsteaks - YOURS (2017) [MP3, 320 kbps CBR] Darkferse
6 | 1

0 | 503

1

06.09.2017 10:18


Яндекс.Метрика powered by Sphinx


В Н И М А Н И Е
Сайт не распространяет и не хранит электронные версии произведений, а лишь бесплатно и без коммерческой выгоды (не требуя взамен платы,
SMS и т.д.) предоставляет доступ к создаваемому пользователями каталогу ссылок на торрент-файлы, которые содержат только списки хеш-сумм.
Убедительная просьба с жалобами обращаться напрямую к пользователю, разместившему торрент файл.

Вверх