Loading...
Error

(Punk, Rock) Приключения Электроников - Земля в иллюминаторе (2003) [FLAC (Image+.CUE), Lossless]

Статистика раздачи
Размер:  264 MB   |    Зарегистрирован:  2 года 11 месяцев   |    Скачан:  4 раза

Полного источника не было: 12 часов

Сидов:  0  |  0 KB/s  ]   Личеров:  1  |  0 KB/s  ]

* - сиды/пиры с внешних источников

   
 
Автор Сообщение

Бишеп Пол:Муж

24-Ноя-2012 11:32

Приключения Электроников - Земля в иллюминаторе

Жанр: Punk, Rock
Год выпуска: 2003
Источник: CD
Производитель диска: АиБ Records
Аудиокодек: FLAC
Тип рипа: Image+.CUE
Битрейт аудио: lossless
Продолжительность: 00:37:48


Треклист:
01. Волшебник-недоучка
02. Все пройдёт
03. Беловежская пуща
04. Трава у дома
05. Песня Лисы Алисы
06. 20-00
07. Грустная песня Сыроежкина
08. Песня Трубадура
09. Синий иней
10. Я умею мечтать
11. Полёт на дельтаплане
Бонус трек:
12. Лондон, прощай

Код:

Exact Audio Copy V1.0 beta 3 from 29. August 2011

Отчёт EAC об извлечении, выполненном 22. ноября 2012, 0:30

Земля в иллюминаторе / Приключения Электроников

Дисковод: HL-DT-STDVDRAM GSA-T10N   Adapter: 0  ID: 0

Режим чтения                 : Достоверность
Использование точного потока : Да
Отключение кэша аудио        : Да
Использование указателей C2  : Нет

Коррекция смещения при чтении                     : 667
Способность читать области Lead-in и Lead-out     : Нет
Заполнение пропущенных сэмплов тишиной            : Да
Удаление блоков с тишиной в начале и конце        : Нет
При вычислениях CRC использовались нулевые сэмплы : Да
Интерфейс                                         : Установленный внешний ASPI-интерфейс

Выходной формат          : Пользовательский кодировщик
Выбранный битрейт        : 1024 kBit/s
Качество                 : Высокий
Добавление ID3-тега      : Нет
Утилита сжатия           : D:\Program Files\Exact Audio Copy\FLAC\FLAC.EXE
Дополнительные параметры : -V -8 -T "Date=%year%" -T "Genre=%genre%" %source%

TOC извлечённого CD

     Трек |   Старт  | Длительность | Начальный сектор | Конечный сектор
    ---------------------------------------------------------------------
       1  |  0:00.00 |    3:49.35   |           0      |      17209     
       2  |  3:49.35 |    3:40.11   |       17210      |      33720     
       3  |  7:29.46 |    2:32.56   |       33721      |      45176     
       4  | 10:02.27 |    3:43.13   |       45177      |      61914     
       5  | 13:45.40 |    1:01.64   |       61915      |      66553     
       6  | 14:47.29 |    3:56.15   |       66554      |      84268     
       7  | 18:43.44 |    2:44.42   |       84269      |      96610     
       8  | 21:28.11 |    3:19.23   |       96611      |     111558     
       9  | 24:47.34 |    2:24.57   |      111559      |     122415     
      10  | 27:12.16 |    3:54.18   |      122416      |     139983     
      11  | 31:06.34 |    3:06.18   |      139984      |     153951     
      12  | 34:12.52 |    3:35.13   |      153952      |     170089     

Характеристики диапазона извлечения и сообщения об ошибках

Выбранный диапазон

     Имя файла D:\Desktop\Земля в иллюминаторе - Приключения Электроников.wav

     Пиковый уровень 98.4 %
     Скорость извлечения 3.5 X
     Качество диапазона 100.0 %
     CRC теста 7DAFB40A
     CRC копии 7DAFB40A
     Копирование... OK

Ошибок не произошло

 
AccurateRip: сводка
 
Трек  1  : извлечено точно (доверие 2)  [0598E7E8]  (AR v1)
Трек  2  : извлечено точно (доверие 2)  [F2D392DB]  (AR v1)
Трек  3  : извлечено точно (доверие 2)  [2FE59463]  (AR v1)
Трек  4  : извлечено точно (доверие 2)  [EB3AD9F0]  (AR v1)
Трек  5  : извлечено точно (доверие 2)  [F5D8409F]  (AR v1)
Трек  6  : извлечено точно (доверие 2)  [3C992E15]  (AR v1)
Трек  7  : извлечено точно (доверие 2)  [A5A391AE]  (AR v1)
Трек  8  : извлечено точно (доверие 2)  [F11D68F9]  (AR v1)
Трек  9  : извлечено точно (доверие 2)  [E7E961AB]  (AR v1)
Трек 10  : извлечено точно (доверие 2)  [C851FDB0]  (AR v1)
Трек 11  : извлечено точно (доверие 2)  [28DBAD65]  (AR v1)
Трек 12  : извлечено точно (доверие 2)  [3B4D3A4F]  (AR v1)
 
Все треки извлечены точно

Конец отчёта

==== Контрольная сумма отчёта 19FF1B88E7F3A3734770F809DFF839315E8C25FFC78D0DB301CD736F1D0D99A0 ====

Код:

REM GENRE Rock, Punk
REM DATE 2003
REM DISCID A108DB0C
REM COMMENT "ExactAudioCopy v1.0b3"
PERFORMER "Приключения Электроников"
TITLE "Земля в иллюминаторе"
FILE "Приключения Электроников - Земля в иллюминаторе.flac" WAVE
  TRACK 01 AUDIO
    TITLE "Волшебник-недоучка"
    PERFORMER "Приключения Электроников"
    INDEX 01 00:00:00
  TRACK 02 AUDIO
    TITLE "Все пройдёт"
    PERFORMER "Приключения Электроников"
    INDEX 01 03:49:35
  TRACK 03 AUDIO
    TITLE "Беловежская пуща"
    PERFORMER "Приключения Электроников"
    INDEX 01 07:29:46
  TRACK 04 AUDIO
    TITLE "Трава у дома"
    PERFORMER "Приключения Электроников"
    INDEX 01 10:02:27
  TRACK 05 AUDIO
    TITLE "Песня Лисы Алисы"
    PERFORMER "Приключения Электроников"
    INDEX 01 13:45:40
  TRACK 06 AUDIO
    TITLE "20-00"
    PERFORMER "Приключения Электроников"
    INDEX 01 14:47:29
  TRACK 07 AUDIO
    TITLE "Грустная песня Сыроежкина"
    PERFORMER "Приключения Электроников"
    INDEX 01 18:43:44
  TRACK 08 AUDIO
    TITLE "Песня Трубадура"
    PERFORMER "Приключения Электроников"
    INDEX 01 21:28:11
  TRACK 09 AUDIO
    TITLE "Синий иней"
    PERFORMER "Приключения Электроников"
    INDEX 01 24:47:34
  TRACK 10 AUDIO
    TITLE "Я умею мечтать"
    PERFORMER "Приключения Электроников"
    INDEX 01 27:12:16
  TRACK 11 AUDIO
    TITLE "Полёт на дельтаплане"
    PERFORMER "Приключения Электроников"
    INDEX 01 31:06:34
  TRACK 12 AUDIO
    TITLE "Лондон, прощай"
    PERFORMER "Приключения Электроников"
    INDEX 01 34:12:52

Код:

-----------------------

DON'T MODIFY THIS FILE

-----------------------

PERFORMER: auCDtect Task Manager, ver. 1.6.0 RC1 build 1.6.0.1
Copyright (c) 2008-2010 y-soft. All rights reserved
http://y-soft.org

ANALYZER: auCDtect: CD records authenticity detector, version 0.8.2
Copyright (c) 2004 Oleg Berngardt. All rights reserved.
Copyright (c) 2004 Alexander Djourik. All rights reserved.

FILE: Приключения Электроников - Земля в иллюминаторе.flac
  Size: 263489538 Hash: FF5330E55C0CFA385C7B80C9E2BA33CC Accuracy: -m0
  Conclusion: CDDA 100%
  Signature: 2B1D09691BDD042040709E566A9A250D6C3937F5

Этот торрент недоступен для скачивания без регистрации, однако доступен по публичной magnet-ссылке (источники с публичных трекеров). Перед использованием ссылки прочтите, пожалуйста Пользовательское соглашение, а также как можно дольше оставайтесь на раздаче! Для того, чтобы скачать сам торрент-файл (который видит больше источников), а также для того, чтобы поблагодарить релизера, вам необходимо зарегистрироваться. Если регистрироваться лень - вы можете также попробовать скачать релиз по нашим партнерским ссылкам ниже. Кроме того, зарегистрированным пользователям не показывается всплывающая реклама при скачивании.

[underverse.su].t56986.torrent
Трекер: Зарегистрирован   [ 12.08.2015 18:39 ]  

Статус: проверено (by Бишеп at 12.08.2015 18:40)
Поблагодарили: пока никто не поблагодарил...
Тип торрента: публичный - доступные источники с открытых трекеров: 
Размер: 264 MB (занимает 0,06 DVDR, для записи нужно 1 болванка DVDR/RW)
 
 
Похожие темы
Форум Тема Автор Торрент Отв. Посл. сооб.
Отечественный Punk, Grunge, Alternative (Lossless) (Punk, Rock) Приключения Электроников - Прекрасное далёко (2001) [FLAC (Image+.CUE), Lossless] Бишеп
0 | 1

1 | 2468

10

24.11.2012 11:36



Последний раз редактировалось: Бишеп (12.08.2015 18:39), всего редактировалось 2 раз(а)

Jimmy Пол:Муж

02-Дек-2012 11:46

Лучший альбом. После него они сдулись. Что печально :(

Яндекс.Метрика powered by Sphinx


В Н И М А Н И Е
Сайт не распространяет и не хранит электронные версии произведений, а лишь бесплатно и без коммерческой выгоды (не требуя взамен платы,
SMS и т.д.) предоставляет доступ к создаваемому пользователями каталогу ссылок на торрент-файлы, которые содержат только списки хеш-сумм.
Убедительная просьба с жалобами обращаться напрямую к пользователю, разместившему торрент файл.

Вверх