Loading...
Error

(Punk Rock) Бахыт Компот - Чурка и Скинхед (2006) [APE (Image + .CUE), Lossless]

Статистика раздачи
Размер:  385 MB   |    Зарегистрирован:  4 года 10 месяцев   |    Скачан:  9 раз

Полного источника не было: 10 месяцев

Сидов:  0  |  0 KB/s  ]   Личеров:  0  |  0 KB/s  ]

* - сиды/пиры с внешних источников

   
 
Автор Сообщение

Бишеп Пол:Муж

31-Авг-2013 05:57

Бахыт Компот - Чурка и Скинхед

Жанр: Punk Rock
Год выпуска: 2010
Производитель диска: 3W-332CD/06
Аудиокодек: APE
Тип рипа: Image+.CUE
Битрейт аудио: Lossless
Продолжительность: 00:57:15
Треклист:
01. Чурка и скинхед
02. Монгольская эстрада
03. Запорожцы - хэй!
04. Девушка по имени Бибигуль
05. Пионервожатая
06. Лола
07. Бухгалтер Иванов
08. Страж любви
09. Курящая мать
10. Четыре татарина и один армянин
11. Девочка-даун (Don't Cry Baby)
12. Америка
13. День рожденья Гитлера
14. Монгольская эстрада (Акустика)
15. Кода: Монгольский хип-хоп от группы ТАТАР

Exact Audio Copy V0.99 prebeta 1 from 25. May 2007

EAC extraction logfile from 15. July 2007, 11:48

бахыт-КОМПОТ и другие... / ЧУРКА и СКИНХЕД

Used drive : HL-DT-STDVD-RW GWA-4082N Adapter: 0 ID: 0

Read mode : Secure
Utilize accurate stream : Yes
Defeat audio cache : Yes
Make use of C2 pointers : No

Read offset correction : 0
Overread into Lead-In and Lead-Out : No
Fill up missing offset samples with silence : Yes
Delete leading and trailing silent blocks : No
Used interface : Native Win32 interface for Win NT & 2000

Used output format : Internal WAV Routines
Sample format : 44.100 Hz; 16 Bit; Stereo

TOC of the extracted CD

Track | Start | Length | Start sector | End sector
---------------------------------------------------------
1 | 0:00.00 | 4:00.32 | 0 | 18031
2 | 4:00.32 | 5:06.15 | 18032 | 40996
3 | 9:06.47 | 2:06.50 | 40997 | 50496
4 | 11:13.22 | 4:14.67 | 50497 | 69613
5 | 15:28.14 | 5:10.27 | 69614 | 92890
6 | 20:38.41 | 3:22.24 | 92891 | 108064
7 | 24:00.65 | 3:23.54 | 108065 | 123343
8 | 27:24.44 | 5:19.19 | 123344 | 147287
9 | 32:43.63 | 4:18.05 | 147288 | 166642
10 | 37:01.68 | 3:43.16 | 166643 | 183383
11 | 40:45.09 | 4:53.61 | 183384 | 205419
12 | 45:38.70 | 3:33.38 | 205420 | 221432
13 | 49:12.33 | 4:38.07 | 221433 | 242289
14 | 53:50.40 | 4:54.41 | 242290 | 264380
15 | 58:45.06 | 0:55.09 | 264381 | 268514

Range status and errors

Selected range

Filename D:\шара\чурка и скинхед\бахыт-КОМПОТ и другие... - ЧУРКА и СКИНХЕД.wav

Peak level 96.6 %
Range quality 100.0 %
Copy CRC 77056E98
Copy OK

No errors occurred

End of status report

Этот торрент недоступен для скачивания без регистрации, однако доступен по публичной magnet-ссылке (источники с публичных трекеров). Перед использованием ссылки прочтите, пожалуйста Пользовательское соглашение, а также как можно дольше оставайтесь на раздаче! Для того, чтобы скачать сам торрент-файл (который видит больше источников), а также для того, чтобы поблагодарить релизера, вам необходимо зарегистрироваться. Если регистрироваться лень - вы можете также попробовать скачать релиз по нашим партнерским ссылкам ниже. Кроме того, зарегистрированным пользователям не показывается всплывающая реклама при скачивании.

[underverse.su].t30509.torrent
Трекер: Зарегистрирован   [ 31.08.2013 05:57 ]  

Статус: проверено (by Бишеп at 31.08.2013 06:01)
Поблагодарили: пока никто не поблагодарил...
Тип торрента: публичный - доступные источники с открытых трекеров: 
Размер: 385 MB (занимает 0,09 DVDR, для записи нужно 1 болванка DVDR/RW)
 
 
Похожие темы
Форум Тема Автор Торрент Отв. Посл. сооб.
Зарубежный Punk, Hardcore, Grunge, Alternative (Punk Rock/Street Punk) BRDigung - In Goldenen Ketten (2014) [MP3, 320 kbps] Jimmy
1 | 0

0 | 1062

4

23.04.2014 16:00

Зарубежный Punk, Hardcore, Grunge, Alternative (Punk Rock/Heavy Punk) Desakato - Buen Viaje (2014) [MP3, 320 kbps] Jimmy
1 | 0

0 | 802

5

23.04.2014 15:53

Зарубежный Punk, Hardcore, Grunge, Alternative (Punk Rock) Richie Ramone - Entitled [ex-Ramones] (2013) [MP3, 320 kbps] Jimmy
2 | 0

0 | 2034

2

21.12.2013 08:03

Зарубежный Punk, Hardcore, Grunge, Alternative (Punk Rock/Old School Pop Punk) The Bugs - 2 альбома (The Bugs/Missile To The Middle East) (2008/2013) [MP3, 320 kbps] Jimmy
0 | 0

0 | 2133

0

21.12.2013 08:06

Зарубежный Punk, Hardcore, Grunge, Alternative (Punk Rock) The So So Glos - Blowout (2013) [MP3, 320 kbps] Jimmy
1 | 0

0 | 1831

1

04.01.2014 10:17

Зарубежный Punk, Hardcore, Grunge, Alternative (Punk Rock | Melodic Hardcore) Noopinion - No Chains For Change (2013) [MP3, 320 kbps] Jimmy
1 | 0

0 | 1773

2

04.01.2014 14:20

Зарубежный Punk, Hardcore, Grunge, Alternative (Punk Rock) Stiff Little Fingers - No Going Back (2014) [MP3, 320 kbps] Jimmy
1 | 5

0 | 1764

5

23.03.2014 05:20

Зарубежный Punk, Hardcore, Grunge, Alternative (Punk Rock, Skate Punk, Melodic Punk) Authority Zero - Broadcasting To The Nations (2017) [MP3, 320 kbps CBR] Darkferse
1 | 0

0 | 838

2

02.06.2017 15:14

Зарубежный Punk, Hardcore, Grunge, Alternative (Punk Rock, Reggae) Anti-Nowhere League - League Style (Loosen Up Volume 1) (2017) [MP3, 320 kbps CBR] Darkferse
1 | 0

0 | 440

1

05.06.2017 23:58

Зарубежный Punk, Hardcore, Grunge, Alternative (Punk Rock) Beatsteaks - YOURS (2017) [MP3, 320 kbps CBR] Darkferse
6 | 1

0 | 503

1

06.09.2017 10:18



Последний раз редактировалось: Бишеп (31.08.2013 06:44), всего редактировалось 1 раз

Бишеп Пол:Муж

31-Авг-2013 06:01


Яндекс.Метрика powered by Sphinx


В Н И М А Н И Е
Сайт не распространяет и не хранит электронные версии произведений, а лишь бесплатно и без коммерческой выгоды (не требуя взамен платы,
SMS и т.д.) предоставляет доступ к создаваемому пользователями каталогу ссылок на торрент-файлы, которые содержат только списки хеш-сумм.
Убедительная просьба с жалобами обращаться напрямую к пользователю, разместившему торрент файл.

Вверх