Loading...
Error

(Авторская песня) Олег Митяев и Юрий Визбор - Лучшие песни. Серия: 2 в 1 (2004) [FLAC (Image+.CUE), Lossless]

Статистика раздачи
Размер:  426 MB   |    Зарегистрирован:  4 года 8 месяцев   |    Скачан:  21 раз

Полного источника не было: 1 месяц 16 дней

Сидов:  0  |  0 KB/s  ]   Личеров:  0  |  0 KB/s  ]

* - сиды/пиры с внешних источников

   
 
Автор Сообщение

Бишеп Пол:Муж

24-Окт-2013 11:42

Олег Митяев и Юрий Визбор - Лучшие песни

Жанр: Авторская песня
Год выпуска: 2004
Производитель диска: Media Records MR CD 2507-04
Аудиокодек: FLAC
Тип рипа: Image+.CUE
Битрейт аудио: Lossless
Продолжительность: 01:16:53
Треклист:
Олег Митяев
01. Западная Сибирь
02. Небесный калькулятор
03. Царица Непала
04. С добрым утром любимая
05. Крепитесь, люди-скоро лето!
06. Соседка
07. Лето-это маленькая жизнь
08. Давай с тобой поговорим
09. Мама
10. Черный клен
11. Как здорово
12. Самая любимая песня
Юрий Визбор
13. Солнышко лесное
14. Ночная дорога
15. Песня альпинистов
16. Бригантина
17. Мама,я хочу домой
18. Подмосковье
19. Рассказ технолога Петухова
20. Вставайте, граф
21. Нам бы выпить перед стартом
22. Телефон
23. Ты у меня одна
24. Я иду на ледоколе
25. Серега Санин
26. Домбайский вальс
27. Наполним музыкой сердца

Exact Audio Copy V1.0 beta 1 from 15. November 2010

Отчёт EAC об извлечении, выполненном 20. февраля 2011, 12:03

Олег Митяев и Юрий Визбор / Лучшие песни

Дисковод: PIONEER DVD-RW DVR-118L Adapter: 0 ID: 0

Режим чтения : Достоверность
Использование точного потока : Да
Отключение кэша аудио : Да
Использование указателей C2 : Нет

Коррекция смещения при чтении : 6
Способность читать области Lead-in и Lead-out : Нет
Заполнение пропущенных сэмплов тишиной : Да
Удаление блоков с тишиной в начале и конце : Нет
При вычислениях CRC использовались нулевые сэмплы : Да
Интерфейс : Встроенный Win32-интерфейс для Win NT/2000

Выходной формат : Пользовательский кодировщик
Выбранный битрейт : 768 kBit/s
Качество : Высокий
Добавление ID3-тэга : Нет
Утилита сжатия : C:\Program Files\Exact Audio Copy\FLAC\FLAC.EXE
Дополнительные параметры : -6 -V -T "ARTIST=%a" -T "TITLE=%t" -T "ALBUM=%g" -T "DATE=%y" -T "TRACKNUMBER=%n" -T "GENRE=%m" -T "COMMENT=%e" %j--picture="%i"%j %s -o %d

TOC извлечённого CD

Трек | Старт | Длительность | Начальный сектор | Конечный сектор
---------------------------------------------------------------------
1 | 0:00.00 | 3:40.73 | 0 | 16572
2 | 3:40.73 | 4:20.21 | 16573 | 36093
3 | 8:01.19 | 3:51.50 | 36094 | 53468
4 | 11:52.69 | 3:02.12 | 53469 | 67130
5 | 14:55.06 | 5:00.45 | 67131 | 89675
6 | 19:55.51 | 3:31.51 | 89676 | 105551
7 | 23:27.27 | 3:18.27 | 105552 | 120428
8 | 26:45.54 | 2:54.18 | 120429 | 133496
9 | 29:39.72 | 4:26.57 | 133497 | 153503
10 | 34:06.54 | 2:43.33 | 153504 | 165761
11 | 36:50.12 | 3:09.27 | 165762 | 179963
12 | 39:59.39 | 4:28.15 | 179964 | 200078
13 | 44:27.54 | 2:02.03 | 200079 | 209231
14 | 46:29.57 | 3:29.12 | 209232 | 224918
15 | 49:58.69 | 1:49.06 | 224919 | 233099
16 | 51:48.00 | 1:44.03 | 233100 | 240902
17 | 53:32.03 | 2:15.27 | 240903 | 251054
18 | 55:47.30 | 2:07.60 | 251055 | 260639
19 | 57:55.15 | 2:24.27 | 260640 | 271466
20 | 60:19.42 | 2:10.51 | 271467 | 281267
21 | 62:30.18 | 1:23.39 | 281268 | 287531
22 | 63:53.57 | 2:24.54 | 287532 | 298385
23 | 66:18.36 | 2:08.66 | 298386 | 308051
24 | 68:27.27 | 1:24.71 | 308052 | 314422
25 | 69:52.23 | 2:25.60 | 314423 | 325357
26 | 72:18.08 | 1:58.33 | 325358 | 334240
27 | 74:16.41 | 2:36.72 | 334241 | 346012

Характеристики диапазона извлечения и сообщения об ошибках

Выбранный диапазон

Имя файла I:\Раздачи\Олег Митяев & Юрий Визбор\Олег Митяев и Юрий Визбор - Лучшие песни.wav

Пиковый уровень 96.5 %
0.0 X
Качество диапазона 100.0 %
CRC теста EB9676FB
CRC копии EB9676FB
Копирование... OK

Ошибок не произошло

AccurateRip: сводка
Трек 1 нет в базе данных
Трек 2 нет в базе данных
Трек 3 нет в базе данных
Трек 4 нет в базе данных
Трек 5 нет в базе данных
Трек 6 нет в базе данных
Трек 7 нет в базе данных
Трек 8 нет в базе данных
Трек 9 нет в базе данных
Трек 10 нет в базе данных
Трек 11 нет в базе данных
Трек 12 нет в базе данных
Трек 13 нет в базе данных
Трек 14 нет в базе данных
Трек 15 нет в базе данных
Трек 16 нет в базе данных
Трек 17 нет в базе данных
Трек 18 нет в базе данных
Трек 19 нет в базе данных
Трек 20 нет в базе данных
Трек 21 нет в базе данных
Трек 22 нет в базе данных
Трек 23 нет в базе данных
Трек 24 нет в базе данных
Трек 25 нет в базе данных
Трек 26 нет в базе данных
Трек 27 нет в базе данных
Ни одного трека нет в базе AccurateRip

Конец отчёта

==== 30D11A815DC3B2C0E4012026379F2410137264198E0FD086F71D26ED5025C80D ====
AUDIOCHECKER v2.0 beta (build 457) - by Dester - opdester@freemail.hu
~~~~~~~~~~~~~~~~~~~~~~~~~~~~~~~~~~

Начато: вторник, 22. 02. 2011. - 12:57.53
Найдено файлов: 1

1 -===- I:\Раздачи\Олег Митяев & Юрий Визбор\Олег Митяев и Юрий Визбор - Лучшие песни.flac
Извлечение успешно выполнено
Заключение: этот трек - CDDA с вероятностью 100%
Временный файл удалён.

Завершено: вторник, 22. 02. 2011. - 13:16.16 (Время операции: 0:18.23)

Этот торрент недоступен для скачивания без регистрации, однако доступен по публичной magnet-ссылке (источники с публичных трекеров). Перед использованием ссылки прочтите, пожалуйста Пользовательское соглашение, а также как можно дольше оставайтесь на раздаче! Для того, чтобы скачать сам торрент-файл (который видит больше источников), а также для того, чтобы поблагодарить релизера, вам необходимо зарегистрироваться. Если регистрироваться лень - вы можете также попробовать скачать релиз по нашим партнерским ссылкам ниже. Кроме того, зарегистрированным пользователям не показывается всплывающая реклама при скачивании.

[underverse.su].t32256.torrent
Трекер: Зарегистрирован   [ 24.10.2013 11:42 ]  

Статус: проверено (by Бишеп at 24.10.2013 11:49)
Поблагодарили: 2 человека
Тип торрента: публичный - доступные источники с открытых трекеров: 
Размер: 426 MB (занимает 0,1 DVDR, для записи нужно 1 болванка DVDR/RW)
 
 
Похожие темы
Форум Тема Автор Торрент Отв. Посл. сооб.
Авторские песни, Барды (Авторская песня) Владимир Высоцкий - Полная коллекция (2009) [MP3, 320 kbps] Добрый жмот
21 | 5

11 | 5870

82

31.07.2013 07:22

Авторские песни, Барды (Авторская песня) Тимур Шаов - О чем молчал Герасим... (2010) [MP3, 320 kbps] KonKoSerg
5 | 0

4 | 2609

26

24.08.2013 06:03

Авторские песни, Барды (Авторская песня) Татьяна и Сергей Никитины - Городок, что я выдумал (2011) [MP3, 320 kbps] KonKoSerg
6 | 1

1 | 2898

40

11.05.2013 10:18

Авторские песни, Барды (Авторская песня) Владимир Высоцкий - Дискография [22 СD] (2001-2007) [MP3, 320 CBR] vovanig
2 | 0

2 | 3510

57

07.08.2014 19:18

Авторские песни, Барды (Авторская песня) Семён Слепаков - Альбом 1 (2012) [MP3, 320 kbps CBR] Бишеп
1 | 0

1 | 2051

53

11.05.2013 07:53

Авторские песни, Барды (Авторская песня, Фолк) Никола Емелин (Емеля) - Дискография (6 альбомов) (1989 - 2011) [MP3, 64-320 kbps] gregsib
14 | 0

1 | 2044

24

05.07.2013 18:48

Авторские песни, Барды (Авторская песня) Вячеслав Мясников (Уральские пельмени) - Сборник песен (2014) [MP3, 128-320 kbps CBR] terra07
1 | 0

1 | 2696

42

09.12.2015 14:37

Авторские песни, Барды (Авторская песня) Владимир Высоцкий - Спасибо, что живой. Песни из кинофильма... - и не только (2012) [MP3, 320 kbps CBR] valera87
3 | 0

0 | 1256

8

14.03.2015 16:31

Авторские песни, Барды (Lossless) (Авторская песня) Владимир Высоцкий - Grand Collection. Часть 1 / Часть 2 (2004) [FLAC (Tracks+.CUE), lossless] garry
1 | 0

1 | 1853

12

21.04.2012 07:06

# Авторские песни, Барды (Lossless) (Авторская песня) Евгений Баранник - На Прорезной (2010) [FLAC (Tracks+.CUE), lossless] garry
1 | 0

0 | 2420

1

20.02.2012 18:25

Бишеп Пол:Муж

24-Окт-2013 11:49


Яндекс.Метрика powered by Sphinx


В Н И М А Н И Е
Сайт не распространяет и не хранит электронные версии произведений, а лишь бесплатно и без коммерческой выгоды (не требуя взамен платы,
SMS и т.д.) предоставляет доступ к создаваемому пользователями каталогу ссылок на торрент-файлы, которые содержат только списки хеш-сумм.
Убедительная просьба с жалобами обращаться напрямую к пользователю, разместившему торрент файл.

Вверх