Loading...
Error

(Авторская песня) Владимир Высоцкий - Золотые хиты. Лучшие песни в новых версиях (2005) [FLAC (Tracks+.CUE), Lossless]

Статистика раздачи
Размер:  462 MB   |    Зарегистрирован:  4 года 8 месяцев   |    Скачан:  29 раз

Полного источника не было: 6 дней

Сидов:  0  |  0 KB/s  ]   Личеров:  0  |  0 KB/s  ]

* - сиды/пиры с внешних источников

   
 
Автор Сообщение

Бишеп Пол:Муж

09-Ноя-2013 11:47

Владимир Высоцкий - Золотые хиты. Лучшие песни в новых версиях

Жанр: Авторская песня
Год выпуска: 2005
Производитель диска: Master Sound - MS CD 608/05
Аудиокодек: FLAC
Тип рипа: Tracks+.CUE
Битрейт аудио: Lossless
Продолжительность: 00:59:47
Треклист:
01. Диалог у телевизора
02. Тот, который не стрелял
03. Мой друг уехал в магадан
04. Я любил и женщин и проказы
05. Поездка в город
06. Милицейский протокол
07. Ой, где был я вчера
08. Мне ребята сказали про такую наколку
09. Ленинградская блокада
10. Эй, шофер
11. Рядовой Борисов
12. Лекция о международном положении, прочитанная сокамерникам человеком, осужденным на 15 суток за мелкое хулиганство
13. Лирическая песня
14. Смотрины
15. У нас вчера, с позавчера
16. Дорожная история
17. Про речку Вачу и попутчицу Валю
18. Так оно и есть

Exact Audio Copy V1.0 beta 3 from 29. August 2011

Отчёт EAC об извлечении, выполненном 22. января 2012, 14:30

Владимир Высоцкий / Золотые хиты

Дисковод: PIONEER DVD-RW DVR-215D Adapter: 1 ID: 1

Режим чтения : Достоверность
Использование точного потока : Да
Отключение кэша аудио : Да
Использование указателей C2 : Нет

Коррекция смещения при чтении : 48
Способность читать области Lead-in и Lead-out : Нет
Заполнение пропущенных сэмплов тишиной : Да
Удаление блоков с тишиной в начале и конце : Нет
При вычислениях CRC использовались нулевые сэмплы : Да
Интерфейс : Встроенный Win32-интерфейс для Win NT/2000
Обработка зазоров : Добавлено к следующему треку

Выходной формат : Пользовательский кодировщик
Выбранный битрейт : 768 kBit/s
Качество : Высокий
Добавление ID3-тега : Нет
Утилита сжатия : C:\Program Files\Exact Audio Copy\FLAC\FLAC.EXE
Дополнительные параметры : -6 -V -T "ARTIST=%artist%" -T "TITLE=%title%" -T "ALBUM=%albumtitle%" -T "DATE=%year%" -T "TRACKNUMBER=%tracknr%" -T "GENRE=%genre%" -T "COMMENT=%comment%" -T "BAND=%albuminterpret%" -T "ALBUMARTIST=%albuminterpret%" -T "COMPOSER=%composer%" %haslyrics%--tag-from-file=LYRICS="%lyricsfile%"%haslyrics% -T "DISCNUMBER=%cdnumber%" -T "TOTALDISCS=%totalcds%" -T "TOTALTRACKS=%numtracks%" %hascover%--picture="%coverfile%"%hascover% %source% -o %dest%

TOC извлечённого CD

Трек | Старт | Длительность | Начальный сектор | Конечный сектор
---------------------------------------------------------------------
1 | 0:00.00 | 3:47.62 | 0 | 17086
2 | 3:47.62 | 3:20.01 | 17087 | 32087
3 | 7:07.63 | 3:43.21 | 32088 | 48833
4 | 10:51.09 | 2:31.25 | 48834 | 60183
5 | 13:22.34 | 3:21.35 | 60184 | 75293
6 | 16:43.69 | 4:11.64 | 75294 | 94182
7 | 20:55.58 | 3:34.37 | 94183 | 110269
8 | 24:30.20 | 3:05.48 | 110270 | 124192
9 | 27:35.68 | 2:00.40 | 124193 | 133232
10 | 29:36.33 | 2:03.09 | 133233 | 142466
11 | 31:39.42 | 3:34.70 | 142467 | 158586
12 | 35:14.37 | 3:26.54 | 158587 | 174090
13 | 38:41.16 | 3:38.14 | 174091 | 190454
14 | 42:19.30 | 4:45.43 | 190455 | 211872
15 | 47:04.73 | 2:33.48 | 211873 | 223395
16 | 49:38.46 | 3:33.34 | 223396 | 239404
17 | 53:12.05 | 3:38.74 | 239405 | 255828
18 | 56:51.04 | 2:55.72 | 255829 | 269025

Трек 1

Имя файла G:\МУЗЫКАЛЬНЫЙ АРХИВ\Владимир Высоцкий\Владимир Высоцкий - Золотые хиты (2005)\01 - Диалог у телевизора.wav

Длина предзазора 0:00:02.00

Пиковый уровень 98.8 %
Скорость извлечения 4.3 X
Качество трека 100.0 %
CRC теста 5E60B06C
CRC копии 5E60B06C
Копирование... OK

Трек 2

Имя файла G:\МУЗЫКАЛЬНЫЙ АРХИВ\Владимир Высоцкий\Владимир Высоцкий - Золотые хиты (2005)\02 - Тот, который не стрелял.wav

Пиковый уровень 96.4 %
Скорость извлечения 4.7 X
Качество трека 100.0 %
CRC теста A276961F
CRC копии A276961F
Копирование... OK

Трек 3

Имя файла G:\МУЗЫКАЛЬНЫЙ АРХИВ\Владимир Высоцкий\Владимир Высоцкий - Золотые хиты (2005)\03 - Мой друг уехал в Магадан.wav

Пиковый уровень 98.8 %
Скорость извлечения 5.0 X
Качество трека 100.0 %
CRC теста 82948E28
CRC копии 82948E28
Копирование... OK

Трек 4

Имя файла G:\МУЗЫКАЛЬНЫЙ АРХИВ\Владимир Высоцкий\Владимир Высоцкий - Золотые хиты (2005)\04 - Я любил и женщин и проказы.wav

Пиковый уровень 98.8 %
Скорость извлечения 5.1 X
Качество трека 100.0 %
CRC теста DF096AC7
CRC копии DF096AC7
Копирование... OK

Трек 5

Имя файла G:\МУЗЫКАЛЬНЫЙ АРХИВ\Владимир Высоцкий\Владимир Высоцкий - Золотые хиты (2005)\05 - Поездка в город.wav

Пиковый уровень 96.7 %
Скорость извлечения 5.6 X
Качество трека 100.0 %
CRC теста A37ECB70
CRC копии A37ECB70
Копирование... OK

Трек 6

Имя файла G:\МУЗЫКАЛЬНЫЙ АРХИВ\Владимир Высоцкий\Владимир Высоцкий - Золотые хиты (2005)\06 - Милицейский протокол.wav

Пиковый уровень 98.8 %
Скорость извлечения 6.2 X
Качество трека 100.0 %
CRC теста 8E936EA8
CRC копии 8E936EA8
Копирование... OK

Трек 7

Имя файла G:\МУЗЫКАЛЬНЫЙ АРХИВ\Владимир Высоцкий\Владимир Высоцкий - Золотые хиты (2005)\07 - Ой, где был я вчера.wav

Пиковый уровень 98.8 %
Скорость извлечения 6.2 X
Качество трека 100.0 %
CRC теста 453E1C1E
CRC копии 453E1C1E
Копирование... OK

Трек 8

Имя файла G:\МУЗЫКАЛЬНЫЙ АРХИВ\Владимир Высоцкий\Владимир Высоцкий - Золотые хиты (2005)\08 - Мне ребята сказали про такую наколку.wav

Пиковый уровень 98.8 %
Скорость извлечения 6.4 X
Качество трека 100.0 %
CRC теста 2D9847C8
CRC копии 2D9847C8
Копирование... OK

Трек 9

Имя файла G:\МУЗЫКАЛЬНЫЙ АРХИВ\Владимир Высоцкий\Владимир Высоцкий - Золотые хиты (2005)\09 - Ленинградская блокада.wav

Пиковый уровень 96.7 %
Скорость извлечения 5.9 X
Качество трека 100.0 %
CRC теста 0E87FCDC
CRC копии 0E87FCDC
Копирование... OK

Трек 10

Имя файла G:\МУЗЫКАЛЬНЫЙ АРХИВ\Владимир Высоцкий\Владимир Высоцкий - Золотые хиты (2005)\10 - Эй, шофер.wav

Пиковый уровень 98.8 %
Скорость извлечения 6.2 X
Качество трека 100.0 %
CRC теста 44D81613
CRC копии 44D81613
Копирование... OK

Трек 11

Имя файла G:\МУЗЫКАЛЬНЫЙ АРХИВ\Владимир Высоцкий\Владимир Высоцкий - Золотые хиты (2005)\11 - Рядовой Борисов.wav

Пиковый уровень 97.1 %
Скорость извлечения 7.0 X
Качество трека 100.0 %
CRC теста 2FE8A656
CRC копии 2FE8A656
Копирование... OK

Трек 12

Имя файла G:\МУЗЫКАЛЬНЫЙ АРХИВ\Владимир Высоцкий\Владимир Высоцкий - Золотые хиты (2005)\12 - Лекция о международном положении, прочитанная сокамерникам человеком, осужденным на 15 суток.wav

Пиковый уровень 98.8 %
Скорость извлечения 7.2 X
Качество трека 100.0 %
CRC теста 203028B4
CRC копии 203028B4
Копирование... OK

Трек 13

Имя файла G:\МУЗЫКАЛЬНЫЙ АРХИВ\Владимир Высоцкий\Владимир Высоцкий - Золотые хиты (2005)\13 - Лирическая песня.wav

Пиковый уровень 98.8 %
Скорость извлечения 7.3 X
Качество трека 100.0 %
CRC теста DB56EF7B
CRC копии DB56EF7B
Копирование... OK

Трек 14

Имя файла G:\МУЗЫКАЛЬНЫЙ АРХИВ\Владимир Высоцкий\Владимир Высоцкий - Золотые хиты (2005)\14 - Смотрины.wav

Пиковый уровень 98.8 %
Скорость извлечения 1.0 X
Качество трека 100.0 %
CRC теста 36C3FB07
CRC копии 36C3FB07
Копирование... OK

Трек 15

Имя файла G:\МУЗЫКАЛЬНЫЙ АРХИВ\Владимир Высоцкий\Владимир Высоцкий - Золотые хиты (2005)\15 - У нас вчера, с позавчера.wav

Пиковый уровень 98.8 %
Скорость извлечения 0.9 X
Качество трека 100.0 %
CRC теста 4B3547B8
CRC копии 4B3547B8
Копирование... OK

Трек 16

Имя файла G:\МУЗЫКАЛЬНЫЙ АРХИВ\Владимир Высоцкий\Владимир Высоцкий - Золотые хиты (2005)\16 - Дорожная история.wav

Пиковый уровень 98.8 %
Скорость извлечения 0.8 X
Качество трека 99.9 %
CRC теста A8B6A3AC
CRC копии A8B6A3AC
Копирование... OK

Трек 17

Имя файла G:\МУЗЫКАЛЬНЫЙ АРХИВ\Владимир Высоцкий\Владимир Высоцкий - Золотые хиты (2005)\17 - Про речку Вачу и попутчицу Валю.wav

Пиковый уровень 98.8 %
Скорость извлечения 0.9 X
Качество трека 100.0 %
CRC теста A1B3E07C
CRC копии A1B3E07C
Копирование... OK

Трек 18

Имя файла G:\МУЗЫКАЛЬНЫЙ АРХИВ\Владимир Высоцкий\Владимир Высоцкий - Золотые хиты (2005)\18 - Так оно и есть.wav

Пиковый уровень 98.8 %
Скорость извлечения 0.8 X
Качество трека 99.9 %
CRC теста 02A30E04
CRC копии 02A30E04
Копирование... OK

Ошибок не произошло

Конец отчёта

==== Контрольная сумма отчёта 9223CC26C86B7A76B429DDE791D972BF9EA751EE7BEC10CDE7547856572FB669 ====
REM GENRE Bard
REM DATE 2005
REM DISCID F10E0312
REM COMMENT "ExactAudioCopy v1.0b3"
PERFORMER "Владимир Высоцкий"
TITLE "Золотые хиты"
FILE "01 - Диалог у телевизора.wav" WAVE
TRACK 01 AUDIO
TITLE "Диалог у телевизора"
PERFORMER "Владимир Высоцкий"
INDEX 01 00:00:00
FILE "02 - Тот, который не стрелял.wav" WAVE
TRACK 02 AUDIO
TITLE "Тот, который не стрелял"
PERFORMER "Владимир Высоцкий"
INDEX 01 00:00:00
FILE "03 - Мой друг уехал в Магадан.wav" WAVE
TRACK 03 AUDIO
TITLE "Мой друг уехал в Магадан"
PERFORMER "Владимир Высоцкий"
INDEX 01 00:00:00
FILE "04 - Я любил и женщин и проказы.wav" WAVE
TRACK 04 AUDIO
TITLE "Я любил и женщин и проказы"
PERFORMER "Владимир Высоцкий"
INDEX 01 00:00:00
FILE "05 - Поездка в город.wav" WAVE
TRACK 05 AUDIO
TITLE "Поездка в город"
PERFORMER "Владимир Высоцкий"
INDEX 01 00:00:00
FILE "06 - Милицейский протокол.wav" WAVE
TRACK 06 AUDIO
TITLE "Милицейский протокол"
PERFORMER "Владимир Высоцкий"
INDEX 01 00:00:00
FILE "07 - Ой, где был я вчера.wav" WAVE
TRACK 07 AUDIO
TITLE "Ой, где был я вчера"
PERFORMER "Владимир Высоцкий"
INDEX 01 00:00:00
FILE "08 - Мне ребята сказали про такую наколку.wav" WAVE
TRACK 08 AUDIO
TITLE "Мне ребята сказали про такую наколку"
PERFORMER "Владимир Высоцкий"
INDEX 01 00:00:00
FILE "09 - Ленинградская блокада.wav" WAVE
TRACK 09 AUDIO
TITLE "Ленинградская блокада"
PERFORMER "Владимир Высоцкий"
INDEX 01 00:00:00
FILE "10 - Эй, шофер.wav" WAVE
TRACK 10 AUDIO
TITLE "Эй, шофер"
PERFORMER "Владимир Высоцкий"
INDEX 01 00:00:00
FILE "11 - Рядовой Борисов.wav" WAVE
TRACK 11 AUDIO
TITLE "Рядовой Борисов"
PERFORMER "Владимир Высоцкий"
INDEX 01 00:00:00
FILE "12 - Лекция о международном положении, прочитанная сокамерникам человеком, осужденным на 15 суток.wav" WAVE
TRACK 12 AUDIO
TITLE "Лекция о международном положении, прочитанная сокамерникам человеком, осужден..."
PERFORMER "Владимир Высоцкий"
INDEX 01 00:00:00
FILE "13 - Лирическая песня.wav" WAVE
TRACK 13 AUDIO
TITLE "Лирическая песня"
PERFORMER "Владимир Высоцкий"
INDEX 01 00:00:00
FILE "14 - Смотрины.wav" WAVE
TRACK 14 AUDIO
TITLE "Смотрины"
PERFORMER "Владимир Высоцкий"
INDEX 01 00:00:00
FILE "15 - У нас вчера, с позавчера.wav" WAVE
TRACK 15 AUDIO
TITLE "У нас вчера, с позавчера"
PERFORMER "Владимир Высоцкий"
INDEX 01 00:00:00
FILE "16 - Дорожная история.wav" WAVE
TRACK 16 AUDIO
TITLE "Дорожная история"
PERFORMER "Владимир Высоцкий"
INDEX 01 00:00:00
FILE "17 - Про речку Вачу и попутчицу Валю.wav" WAVE
TRACK 17 AUDIO
TITLE "Про речку Вачу и попутчицу Валю"
PERFORMER "Владимир Высоцкий"
INDEX 01 00:00:00
FILE "18 - Так оно и есть.wav" WAVE
TRACK 18 AUDIO
TITLE "Так оно и есть"
PERFORMER "Владимир Высоцкий"
INDEX 01 00:00:00

Этот торрент недоступен для скачивания без регистрации, однако доступен по публичной magnet-ссылке (источники с публичных трекеров). Перед использованием ссылки прочтите, пожалуйста Пользовательское соглашение, а также как можно дольше оставайтесь на раздаче! Для того, чтобы скачать сам торрент-файл (который видит больше источников), а также для того, чтобы поблагодарить релизера, вам необходимо зарегистрироваться. Если регистрироваться лень - вы можете также попробовать скачать релиз по нашим партнерским ссылкам ниже. Кроме того, зарегистрированным пользователям не показывается всплывающая реклама при скачивании.

[underverse.su].t32874.torrent
Трекер: Зарегистрирован   [ 09.11.2013 11:47 ]  

Статус: проверено (by Бишеп at 09.11.2013 11:47)
Поблагодарили: 4 человека
Тип торрента: публичный - доступные источники с открытых трекеров: 
Размер: 462 MB (занимает 0,1 DVDR, для записи нужно 1 болванка DVDR/RW)
 
 
Похожие темы
Форум Тема Автор Торрент Отв. Посл. сооб.
Авторские песни, Барды (Авторская песня) Владимир Высоцкий - Полная коллекция (2009) [MP3, 320 kbps] Добрый жмот
21 | 5

11 | 5870

82

31.07.2013 07:22

Авторские песни, Барды (Авторская песня) Тимур Шаов - О чем молчал Герасим... (2010) [MP3, 320 kbps] KonKoSerg
5 | 0

4 | 2609

26

24.08.2013 06:03

Авторские песни, Барды (Авторская песня) Татьяна и Сергей Никитины - Городок, что я выдумал (2011) [MP3, 320 kbps] KonKoSerg
6 | 1

1 | 2899

40

11.05.2013 10:18

Авторские песни, Барды (Авторская песня) Владимир Высоцкий - Дискография [22 СD] (2001-2007) [MP3, 320 CBR] vovanig
2 | 0

2 | 3510

57

07.08.2014 19:18

Авторские песни, Барды (Авторская песня) Семён Слепаков - Альбом 1 (2012) [MP3, 320 kbps CBR] Бишеп
2 | 0

1 | 2051

53

11.05.2013 07:53

Авторские песни, Барды (Авторская песня, Фолк) Никола Емелин (Емеля) - Дискография (6 альбомов) (1989 - 2011) [MP3, 64-320 kbps] gregsib
14 | 0

1 | 2044

24

05.07.2013 18:48

Авторские песни, Барды (Авторская песня) Вячеслав Мясников (Уральские пельмени) - Сборник песен (2014) [MP3, 128-320 kbps CBR] terra07
1 | 0

1 | 2698

42

09.12.2015 14:37

Авторские песни, Барды (Авторская песня) Владимир Высоцкий - Спасибо, что живой. Песни из кинофильма... - и не только (2012) [MP3, 320 kbps CBR] valera87
3 | 0

0 | 1256

8

14.03.2015 16:31

Авторские песни, Барды (Lossless) (Авторская песня) Владимир Высоцкий - Grand Collection. Часть 1 / Часть 2 (2004) [FLAC (Tracks+.CUE), lossless] garry
1 | 0

1 | 1854

12

21.04.2012 07:06

# Авторские песни, Барды (Lossless) (Авторская песня) Евгений Баранник - На Прорезной (2010) [FLAC (Tracks+.CUE), lossless] garry
0 | 0

0 | 2420

1

20.02.2012 18:25


Яндекс.Метрика powered by Sphinx


В Н И М А Н И Е
Сайт не распространяет и не хранит электронные версии произведений, а лишь бесплатно и без коммерческой выгоды (не требуя взамен платы,
SMS и т.д.) предоставляет доступ к создаваемому пользователями каталогу ссылок на торрент-файлы, которые содержат только списки хеш-сумм.
Убедительная просьба с жалобами обращаться напрямую к пользователю, разместившему торрент файл.

Вверх