Loading...
Error

(Pop) Eros Ramazzotti - Noi Due (2013) [FLAC (Tracks+.CUE), Lossless]

Статистика раздачи
Размер:  565 MB   |    Зарегистрирован:  4 года 5 месяцев   |    Скачан:  10 раз

Полного источника не было: 11 месяцев

Сидов:  0  |  0 KB/s  ]   Личеров:  0  |  0 KB/s  ]

* - сиды/пиры с внешних источников

   
 
Автор Сообщение

Бишеп Пол:Муж

04-Янв-2014 06:18

Eros Ramazzotti - Noi Due

Жанр: Pop
Год выпуска: 2013
Производитель диска: Universal Music - 0602537605675
Аудиокодек: FLAC
Тип рипа: Tracks+.CUE
Битрейт аудио: Lossless
Продолжительность: 01:01:54
Треклист:
01. Io Prima Di Te
02. Noi
03. Un Angelo Disteso Al Sole
04. Questa Nostra Stagione
05. Io Sono Te (feat. Giancarlo Giannini)
06. Fino All'estasi (feat. Nicole Scherzinger)
07. Abbracciami
08. Balla Solo La Tua Musica
09. Infinitamente
10. Polaroid
11. Sotto Lo Stesso Cielo
12. Una Tempesta Di Stelle
13. Testa O Cuore (feat. Club Dogo)
14. Cosм (feat. Il Volo)
15. Solamente Uno (feat. Hooverphonic)
16. Fino All'estasi (Daddy's Groove Remix)
17. Noi (Acoustic Version)

Exact Audio Copy V1.0 beta 3 from 29. August 2011

EAC extraction logfile from 13. December 2013, 16:04

Eros Ramazzotti / Noi due

Used drive : TSSTcorpDVDWBD SH-B123L Adapter: 5 ID: 0

Read mode : Secure
Utilize accurate stream : Yes
Defeat audio cache : Yes
Make use of C2 pointers : No

Read offset correction : 6
Overread into Lead-In and Lead-Out : No
Fill up missing offset samples with silence : Yes
Delete leading and trailing silent blocks : No
Null samples used in CRC calculations : Yes
Used interface : Installed external ASPI interface
Gap handling : Appended to previous track

Used output format : User Defined Encoder
Selected bitrate : 1024 kBit/s
Quality : High
Add ID3 tag : No
Command line compressor : C:\Program Files (x86)\Exact Audio Copy\Flac\flac.exe
Additional command line options : -8 -V -T "ARTIST=%artist%" -T "TITLE=%title%" -T "ALBUM=%albumtitle%" -T "DATE=%year%" -T "TRACKNUMBER=%tracknr%" -T "GENRE=%genre%" -T "PERFORMER=%albuminterpret%" -T "COMPOSER=%composer%" %haslyrics%--tag-from-file=LYRICS="%lyricsfile%"%haslyrics% -T "ALBUMARTIST=%albumartist%" -T "DISCNUMBER=%cdnumber%" -T "TOTALDISCS=%totalcds%" -T "TOTALTRACKS=%numtracks%" -T "COMMENT= EAC Secure Mode, Test & Copy, AccurateRip, FLAC -8 %comment%" %source% -o %dest%

TOC of the extracted CD

Track | Start | Length | Start sector | End sector
---------------------------------------------------------
1 | 0:00.00 | 3:35.10 | 0 | 16134
2 | 3:35.10 | 3:53.48 | 16135 | 33657
3 | 7:28.58 | 3:24.35 | 33658 | 48992
4 | 10:53.18 | 3:37.07 | 48993 | 65274
5 | 14:30.25 | 3:32.07 | 65275 | 81181
6 | 18:02.32 | 3:45.72 | 81182 | 98128
7 | 21:48.29 | 3:16.42 | 98129 | 112870
8 | 25:04.71 | 3:50.46 | 112871 | 130166
9 | 28:55.42 | 3:47.66 | 130167 | 147257
10 | 32:43.33 | 3:33.43 | 147258 | 163275
11 | 36:17.01 | 3:40.24 | 163276 | 179799
12 | 39:57.25 | 3:51.46 | 179800 | 197170
13 | 43:48.71 | 4:05.36 | 197171 | 215581
14 | 47:54.32 | 4:17.41 | 215582 | 234897
15 | 52:11.73 | 3:05.31 | 234898 | 248803
16 | 55:17.29 | 3:32.06 | 248804 | 264709
17 | 58:49.35 | 3:12.74 | 264710 | 279183

Track 1

Filename C:\EAC\01. Eros Ramazzotti - Io prima di te.wav

Pre-gap length 0:00:02.00

Peak level 99.9 %
Extraction speed 1.7 X
Track quality 99.9 %
Test CRC 353DA4FC
Copy CRC 353DA4FC
Track not present in AccurateRip database
Copy OK

Track 2

Filename C:\EAC\02. Eros Ramazzotti - Noi.wav

Peak level 99.8 %
Extraction speed 2.2 X
Track quality 100.0 %
Test CRC 667BBF4A
Copy CRC 667BBF4A
Track not present in AccurateRip database
Copy OK

Track 3

Filename C:\EAC\03. Eros Ramazzotti - Un angelo disteso al sole.wav

Pre-gap length 0:00:00.53

Peak level 100.0 %
Extraction speed 2.3 X
Track quality 100.0 %
Test CRC 6F36108E
Copy CRC 6F36108E
Track not present in AccurateRip database
Copy OK

Track 4

Filename C:\EAC\04. Eros Ramazzotti - Questa nostra stagione.wav

Pre-gap length 0:00:01.16

Peak level 100.0 %
Extraction speed 2.1 X
Track quality 99.9 %
Test CRC DD5888CE
Copy CRC DD5888CE
Track not present in AccurateRip database
Copy OK

Track 5

Filename C:\EAC\05. Eros Ramazzotti - Io sono te (feat. Giancarlo Giannini).wav

Pre-gap length 0:00:01.17

Peak level 100.0 %
Extraction speed 2.7 X
Track quality 100.0 %
Test CRC 73BAB6F5
Copy CRC 73BAB6F5
Track not present in AccurateRip database
Copy OK

Track 6

Filename C:\EAC\06. Eros Ramazzotti - Fino all'estasi (feat. Nicole Scherzinger).wav

Pre-gap length 0:00:01.70

Peak level 100.0 %
Extraction speed 2.8 X
Track quality 100.0 %
Test CRC 48239F60
Copy CRC 48239F60
Track not present in AccurateRip database
Copy OK

Track 7

Filename C:\EAC\07. Eros Ramazzotti - Abbracciami.wav

Pre-gap length 0:00:01.81

Peak level 100.0 %
Extraction speed 2.2 X
Track quality 99.9 %
Test CRC 1E39CC0E
Copy CRC 1E39CC0E
Track not present in AccurateRip database
Copy OK

Track 8

Filename C:\EAC\08. Eros Ramazzotti - Balla solo la tua musica.wav

Pre-gap length 0:00:01.14

Peak level 100.0 %
Extraction speed 3.1 X
Track quality 100.0 %
Test CRC 002BBC17
Copy CRC 002BBC17
Track not present in AccurateRip database
Copy OK

Track 9

Filename C:\EAC\09. Eros Ramazzotti - Infinitamente.wav

Pre-gap length 0:00:01.30

Peak level 99.6 %
Extraction speed 3.2 X
Track quality 100.0 %
Test CRC BA3FFB93
Copy CRC BA3FFB93
Track not present in AccurateRip database
Copy OK

Track 10

Filename C:\EAC\10. Eros Ramazzotti - Polaroid.wav

Pre-gap length 0:00:01.04

Peak level 100.0 %
Extraction speed 3.3 X
Track quality 100.0 %
Test CRC 5AC8295F
Copy CRC 5AC8295F
Track not present in AccurateRip database
Copy OK

Track 11

Filename C:\EAC\11. Eros Ramazzotti - Sotto lo stesso cielo.wav

Pre-gap length 0:00:00.36

Peak level 100.0 %
Extraction speed 3.4 X
Track quality 100.0 %
Test CRC 10D5E7A0
Copy CRC 10D5E7A0
Track not present in AccurateRip database
Copy OK

Track 12

Filename C:\EAC\12. Eros Ramazzotti - Una tempesta di stelle.wav

Pre-gap length 0:00:01.69

Peak level 100.0 %
Extraction speed 3.6 X
Track quality 100.0 %
Test CRC 7B1B11BE
Copy CRC 7B1B11BE
Track not present in AccurateRip database
Copy OK

Track 13

Filename C:\EAC\13. Eros Ramazzotti - Testa o cuore (feat. Club Dogo).wav

Pre-gap length 0:00:00.74

Peak level 100.0 %
Extraction speed 3.7 X
Track quality 100.0 %
Test CRC A903ABF6
Copy CRC A903ABF6
Track not present in AccurateRip database
Copy OK

Track 14

Filename C:\EAC\14. Eros Ramazzotti - Così (feat. Il Volo).wav

Pre-gap length 0:00:01.18

Peak level 99.7 %
Extraction speed 3.9 X
Track quality 100.0 %
Test CRC AA60EB26
Copy CRC AA60EB26
Track not present in AccurateRip database
Copy OK

Track 15

Filename C:\EAC\15. Eros Ramazzotti - Solamente uno (feat. Hooverphonic).wav

Pre-gap length 0:00:01.13

Peak level 99.6 %
Extraction speed 3.8 X
Track quality 100.0 %
Test CRC 71A64203
Copy CRC 71A64203
Track not present in AccurateRip database
Copy OK

Track 16

Filename C:\EAC\16. Eros Ramazzotti - Fino all'estasi (Daddy's Groove remix).wav

Peak level 100.0 %
Extraction speed 3.9 X
Track quality 100.0 %
Test CRC 15E55ACA
Copy CRC 15E55ACA
Track not present in AccurateRip database
Copy OK

Track 17

Filename C:\EAC\17. Eros Ramazzotti - Noi (acoustic version).wav

Peak level 86.2 %
Extraction speed 3.9 X
Track quality 100.0 %
Test CRC 13A3F5D2
Copy CRC 13A3F5D2
Track not present in AccurateRip database
Copy OK

None of the tracks are present in the AccurateRip database

No errors occurred

End of status report

---- CUETools DB Plugin V2.1.4

[CTDB TOCID: jybiM8J3n_ej5eUtCa67PUtaDkU-] found
Submit result: jybiM8J3n_ej5eUtCa67PUtaDkU- has been uploaded
Track | CTDB Status
1 | (1/1) Accurately ripped
2 | (1/1) Accurately ripped
3 | (1/1) Accurately ripped
4 | (1/1) Accurately ripped
5 | (0/1) No match
6 | (1/1) Accurately ripped
7 | (1/1) Accurately ripped
8 | (1/1) Accurately ripped
9 | (1/1) Accurately ripped
10 | (1/1) Accurately ripped
11 | (1/1) Accurately ripped
12 | (1/1) Accurately ripped
13 | (1/1) Accurately ripped
14 | (1/1) Accurately ripped
15 | (1/1) Accurately ripped
16 | (1/1) Accurately ripped
17 | (1/1) Accurately ripped

==== Log checksum 979E7E37F74093F7FBAD918B027B64BA445B510CC179AB4253225E1751F40EBA ====
REM GENRE "Pop Rock"
REM DATE 2013
REM DISCID ED0E8A11
REM COMMENT "ExactAudioCopy v1.0b3"
CATALOG 0602537605675
PERFORMER "Eros Ramazzotti"
TITLE "Noi due"
FILE "01. Eros Ramazzotti - Io prima di te.flac" WAVE
TRACK 01 AUDIO
TITLE "Io prima di te"
PERFORMER "Eros Ramazzotti"
ISRC ITUM71300864
INDEX 01 00:00:00
FILE "02. Eros Ramazzotti - Noi.flac" WAVE
TRACK 02 AUDIO
TITLE "Noi"
PERFORMER "Eros Ramazzotti"
ISRC ITUM71200633
INDEX 01 00:00:00
TRACK 03 AUDIO
TITLE "Un angelo disteso al sole"
PERFORMER "Eros Ramazzotti"
ISRC ITUM71200619
INDEX 00 03:53:08
FILE "03. Eros Ramazzotti - Un angelo disteso al sole.flac" WAVE
INDEX 01 00:00:00
TRACK 04 AUDIO
TITLE "Questa nostra stagione"
PERFORMER "Eros Ramazzotti"
ISRC ITUM71200631
INDEX 00 03:23:23
FILE "04. Eros Ramazzotti - Questa nostra stagione.flac" WAVE
INDEX 01 00:00:00
TRACK 05 AUDIO
TITLE "Io sono te (feat. Giancarlo Giannini)"
PERFORMER "Eros Ramazzotti"
ISRC ITUM71200642
INDEX 00 03:35:69
FILE "05. Eros Ramazzotti - Io sono te (feat. Giancarlo Giannini).flac" WAVE
INDEX 01 00:00:00
TRACK 06 AUDIO
TITLE "Fino all'estasi (feat. Nicole Scherzinger)"
PERFORMER "Eros Ramazzotti"
ISRC ITUM71200641
INDEX 00 03:30:29
FILE "06. Eros Ramazzotti - Fino all'estasi (feat. Nicole Scherzinger).flac" WAVE
INDEX 01 00:00:00
TRACK 07 AUDIO
TITLE "Abbracciami"
PERFORMER "Eros Ramazzotti"
ISRC ITUM71200634
INDEX 00 03:44:11
FILE "07. Eros Ramazzotti - Abbracciami.flac" WAVE
INDEX 01 00:00:00
TRACK 08 AUDIO
TITLE "Balla solo la tua musica"
PERFORMER "Eros Ramazzotti"
ISRC ITUM71200632
INDEX 00 03:15:31
FILE "08. Eros Ramazzotti - Balla solo la tua musica.flac" WAVE
INDEX 01 00:00:00
TRACK 09 AUDIO
TITLE "Infinitamente"
PERFORMER "Eros Ramazzotti"
ISRC ITUM71200637
INDEX 00 03:49:23
FILE "09. Eros Ramazzotti - Infinitamente.flac" WAVE
INDEX 01 00:00:00
TRACK 10 AUDIO
TITLE "Polaroid"
PERFORMER "Eros Ramazzotti"
ISRC ITUM71200635
INDEX 00 03:46:63
FILE "10. Eros Ramazzotti - Polaroid.flac" WAVE
INDEX 01 00:00:00
TRACK 11 AUDIO
TITLE "Sotto lo stesso cielo"
PERFORMER "Eros Ramazzotti"
ISRC ITUM71200636
INDEX 00 03:33:16
FILE "11. Eros Ramazzotti - Sotto lo stesso cielo.flac" WAVE
INDEX 01 00:00:00
TRACK 12 AUDIO
TITLE "Una tempesta di stelle"
PERFORMER "Eros Ramazzotti"
ISRC ITUM71200638
INDEX 00 03:38:47
FILE "12. Eros Ramazzotti - Una tempesta di stelle.flac" WAVE
INDEX 01 00:00:00
TRACK 13 AUDIO
TITLE "Testa o cuore (feat. Club Dogo)"
PERFORMER "Eros Ramazzotti"
ISRC ITUM71200640
INDEX 00 03:50:65
FILE "13. Eros Ramazzotti - Testa o cuore (feat. Club Dogo).flac" WAVE
INDEX 01 00:00:00
TRACK 14 AUDIO
TITLE "Cosм (feat. Il Volo)"
PERFORMER "Eros Ramazzotti"
ISRC ITUM71200655
INDEX 00 04:04:22
FILE "14. Eros Ramazzotti - Cosм (feat. Il Volo).flac" WAVE
INDEX 01 00:00:00
TRACK 15 AUDIO
TITLE "Solamente uno (feat. Hooverphonic)"
PERFORMER "Eros Ramazzotti"
ISRC ITUM71200639
INDEX 00 04:16:31
FILE "15. Eros Ramazzotti - Solamente uno (feat. Hooverphonic).flac" WAVE
INDEX 01 00:00:00
FILE "16. Eros Ramazzotti - Fino all'estasi (Daddy's Groove remix).flac" WAVE
TRACK 16 AUDIO
TITLE "Fino all'estasi (Daddy's Groove remix)"
PERFORMER "Eros Ramazzotti"
ISRC ITUM71200639
INDEX 01 00:00:00
FILE "17. Eros Ramazzotti - Noi (acoustic version).flac" WAVE
TRACK 17 AUDIO
TITLE "Noi (acoustic version)"
PERFORMER "Eros Ramazzotti"
ISRC ITUM71300519
INDEX 01 00:00:00

Этот торрент недоступен для скачивания без регистрации, однако доступен по публичной magnet-ссылке (источники с публичных трекеров). Перед использованием ссылки прочтите, пожалуйста Пользовательское соглашение, а также как можно дольше оставайтесь на раздаче! Для того, чтобы скачать сам торрент-файл (который видит больше источников), а также для того, чтобы поблагодарить релизера, вам необходимо зарегистрироваться. Если регистрироваться лень - вы можете также попробовать скачать релиз по нашим партнерским ссылкам ниже. Кроме того, зарегистрированным пользователям не показывается всплывающая реклама при скачивании.

[underverse.su].t34909.torrent
Трекер: Зарегистрирован   [ 04.01.2014 06:18 ]  

Статус: проверено (by Бишеп at 04.01.2014 06:18)
Поблагодарили: пока никто не поблагодарил...
Тип торрента: публичный - доступные источники с открытых трекеров: 
Размер: 565 MB (занимает 0,13 DVDR, для записи нужно 1 болванка DVDR/RW)
 
 
Похожие темы
Форум Тема Автор Торрент Отв. Посл. сооб.
Зарубежная Pop Музыка (Pop) Eros Ramazzotti - Eros 30 (3CD) (Deluxe Edition) (2014) [MP3, 320 kbps] 90ytr90
42 | 6

0 | 1545

8

18.03.2015 20:25

Архив (популярная музыка) (Pop) Eros Ramazzotti - Дискография (1987-2009) [MP3, VBR 320 kbps] Алексей 25
0 | 0

1 | 1445

0

16.06.2011 08:09

Архив (популярная музыка) (Pop) Eros Ramazzotti - Noi (2012) [MP3, CBR 320 kbps] ZondeR
0 | 0

1 | 988

9

31.01.2018 19:38

Архив (популярная музыка) (Pop) Eros Ramazzotti - Somos (2012) [MP3, 320 kbps CBR] SASHOK
0 | 0

1 | 1350

13

31.01.2018 19:39

31-Янв-2018 20:52

Топик был перенесен из форума Зарубежная Поп Музыка (Lossless) в форум Архив (HQ популярная музыка)


[cron robot]
 

Яндекс.Метрика powered by Sphinx


В Н И М А Н И Е
Сайт не распространяет и не хранит электронные версии произведений, а лишь бесплатно и без коммерческой выгоды (не требуя взамен платы,
SMS и т.д.) предоставляет доступ к создаваемому пользователями каталогу ссылок на торрент-файлы, которые содержат только списки хеш-сумм.
Убедительная просьба с жалобами обращаться напрямую к пользователю, разместившему торрент файл.

Вверх