Loading...
Error

Планета обезьян / Planet of the Apes (Тим Бертон / Tim Burton) [2001, фантастика, боевик, триллер, приключения, BDRemux 1080p] Dub Sub Rus + Original Eng

Статистика раздачи
Размер:  22,35 GB   |    Зарегистрирован:  4 года 4 месяца   |    Скачан:  9 раз

Полного источника не было: 1 месяц 29 дней

Сидов:  0  |  0 KB/s  ]   Личеров:  0  |  0 KB/s  ]

* - сиды/пиры с внешних источников

   
 
Автор Сообщение

uzi2009 Пол:Муж

29-Янв-2014 14:01

Планета обезьян / Planet of the Apes

Страна: США
Жанр: фантастика, боевик, триллер, приключения
Год выпуска: 2001
Продолжительность: 01:59:58
Перевод: Профессиональный (дублированный) Blu-ray CEE
Cубтитры: русские,английские
Оригинальная аудиодорожка: английский
Режиссер: Тим Бертон / Tim Burton
В ролях: Марк Уолберг, Тим Рот, Хелена Бонем Картер, Майкл Кларк Дункан, Пол Джаматти, Эстелла Уоррен, Кэри-Хироюки Тагава, Дэвид Уорнер, Крис Кристофферсон, Эрик Эвари, Лукас Эллиотт, Ивэн Декстер Парк, Гленн Шэдикс, Фреда Фо Шен, Крис Эллис, Энн Рамсей
Описание: Будущее. 2029 год. На гигантской космической станции астронавт Лео Дэвидсон обучает обезьян управлять летательными аппаратами. Неожиданно один из его учеников теряет контроль над космолетом и его уносит в еще не изученную область пространственно-временных туннелей.

Не раздумывая ни секунды, Лео бросается на выручку шимпанзе, но его постигает та же участь. Пройдя сквозь туннель, он совершает скачок во времени и попадает на неизвестную планету, где цивилизация воинствующих обезьян превратила людей в своих рабов. Оказавшись в плену у обезьян, Лео пытается отстоять права человечества на свободу.

Но как могут вооруженные палками люди сопротивляться закованным в доспехи злобным гориллам убийцам? Единственный шанс выжить и победить в этой битве, это добраться до скрывающей страшную тайну происхождения обезьян «Запретной зоны».


Доп.информация:За дорожки с авторским переводом спасибо Skazhutin
Тип релиза: BDRemux 1080p
Контейнер: MKV

Видео: AVC,1920x1080,18700 kbps,23,976 fps
Аудио 1: Russian: 48 kHz, DTS, 3/2 (L,C,R,l,r) + LFE ch, ~768.00 kbps avg |Дубляж, Blu-ray CEE|
Аудио 2: Russian: 48 kHz, AC3, 3/2 (L,C,R,l,r) + LFE ch, ~384.00 kbps avg |Многоголосый(закадровый) R5|
Аудио 3: Russian: 48 kHz, DTS, 3/2 (L,C,R,l,r) + LFE ch, ~1536.00 kbps avg |Многоголосый(закадровый) Позитив-Мультимедиа|
Аудио 4: Russian: 48 kHz, DTS, 3/2 (L,C,R,l,r) + LFE ch, ~1536.00 kbps avg Авторский (Визгунов)
Аудио 5: Russian: 48 kHz, DTS, 3/2 (L,C,R,l,r) + LFE ch, ~1536.00 kbps avg Авторский (Живов)
Аудио 6: English: 48 kHz, AC3, 2/0 (L,R) ch, ~224.00 kbps avg |Commentary|
Аудио 7: DTS-HD Master Audio / English / 3879 kbps 5.1 / 48 kHz / 3879 kbps / 24-bit (DTS Core: 5.1 / 48 kHz / 1509 kbps / 24-bit)
Чаптеры:есть(подписаны)


General
Unique ID : 234960032593694042251198320315577285860 (0xB0C3A8000ABB2F8B8C9558923D063CE4)
Complete name : D:\Downloads\Видео\Planet of the Apes 2001.BluRay-Remux(1080p).mkv
Format : Matroska
File size : 22.3 GiB
Duration : 2h 0mn
Overall bit rate : 26.6 Mbps
Movie name : -Talian-
Encoded date : UTC 2011-12-08 16:53:07
Writing application : mkvmerge v5.0.1 ('Es ist Sommer') built on Oct 9 2011 11:55:43
Writing library : libebml v1.2.2 + libmatroska v1.3.0

Video
ID : 1
Format : MPEG Video
Format version : Version 2
Format profile : Main@High
Format settings, BVOP : No
Format settings, Matrix : Default
Codec ID : V_MPEG2
Codec ID/Info : MPEG 1 or 2 Video
Duration : 2h 0mn
Bit rate mode : Variable
Bit rate : 18.7 Mbps
Nominal bit rate : 32.0 Mbps
Width : 1 920 pixels
Height : 1 080 pixels
Display aspect ratio : 16:9
Frame rate : 23.976 fps
Color space : YUV
Chroma subsampling : 4:2:0
Bit depth : 8 bits
Scan type : Progressive
Compression mode : Lossy
Bits/(Pixel*Frame) : 0.375
Stream size : 15.6 GiB (70%)
Title : Planet of the Apes 2001.BluRay-Remux(1080p)
Language : English

Audio #1
ID : 2
Format : DTS
Format/Info : Digital Theater Systems
Codec ID : A_DTS
Duration : 2h 0mn
Bit rate mode : Constant
Bit rate : 755 Kbps
Channel(s) : 6 channels
Channel positions : Front: L C R, Side: L R, LFE
Sampling rate : 48.0 KHz
Bit depth : 24 bits
Compression mode : Lossy
Stream size : 648 MiB (3%)
Title : DUB-Blu-ray CEE
Language : Russian

Audio #2
ID : 3
Format : AC-3
Format/Info : Audio Coding 3
Mode extension : CM (complete main)
Codec ID : A_AC3
Duration : 2h 0mn
Bit rate mode : Constant
Bit rate : 384 Kbps
Channel(s) : 6 channels
Channel positions : Front: L C R, Side: L R, LFE
Sampling rate : 48.0 KHz
Bit depth : 16 bits
Compression mode : Lossy
Stream size : 330 MiB (1%)
Title : MVO-R5
Language : Russian

Audio #3
ID : 4
Format : DTS
Format/Info : Digital Theater Systems
Codec ID : A_DTS
Duration : 2h 0mn
Bit rate mode : Constant
Bit rate : 1 510 Kbps
Channel(s) : 6 channels
Channel positions : Front: L C R, Side: L R, LFE
Sampling rate : 48.0 KHz
Bit depth : 24 bits
Compression mode : Lossy
Stream size : 1.27 GiB (6%)
Title : MVO-Позитив-Мультимедиа
Language : Russian

Audio #4
ID : 5
Format : DTS
Format/Info : Digital Theater Systems
Codec ID : A_DTS
Duration : 2h 0mn
Bit rate mode : Constant
Bit rate : 1 510 Kbps
Channel(s) : 6 channels
Channel positions : Front: L C R, Side: L R, LFE
Sampling rate : 48.0 KHz
Bit depth : 24 bits
Compression mode : Lossy
Stream size : 1.27 GiB (6%)
Title : AVO-Визгунов
Language : Russian

Audio #5
ID : 6
Format : DTS
Format/Info : Digital Theater Systems
Codec ID : A_DTS
Duration : 2h 0mn
Bit rate mode : Constant
Bit rate : 1 510 Kbps
Channel(s) : 6 channels
Channel positions : Front: L C R, Side: L R, LFE
Sampling rate : 48.0 KHz
Bit depth : 24 bits
Compression mode : Lossy
Stream size : 1.27 GiB (6%)
Title : AVO-Живов
Language : Russian

Audio #6
ID : 7
Format : AC-3
Format/Info : Audio Coding 3
Mode extension : CM (complete main)
Codec ID : A_AC3
Duration : 2h 0mn
Bit rate mode : Constant
Bit rate : 224 Kbps
Channel(s) : 2 channels
Channel positions : Front: L R
Sampling rate : 48.0 KHz
Bit depth : 16 bits
Compression mode : Lossy
Stream size : 192 MiB (1%)
Title : Commentary
Language : English

Audio #7
ID : 8
Format : DTS
Format/Info : Digital Theater Systems
Format profile : MA / Core
Codec ID : A_DTS
Duration : 2h 0mn
Bit rate mode : Variable
Bit rate : 1 561 Kbps / 1 510 Kbps
Channel(s) : 6 channels
Channel positions : Front: L C R, Side: L R, LFE
Sampling rate : 48.0 KHz
Bit depth : 24 bits
Compression mode : Lossless / Lossy
Title : Original
Language : English

Text #1
ID : 9
Format : UTF-8
Codec ID : S_TEXT/UTF8
Codec ID/Info : UTF-8 Plain Text
Title : Sub
Language : Russian

Text #2
ID : 10
Format : UTF-8
Codec ID : S_TEXT/UTF8
Codec ID/Info : UTF-8 Plain Text
Title : Sub
Language : English

Menu
00:00:00.000 : Main Titles
00:03:17.334 : Pericles
00:06:04.501 : Eye of the Storm
00:10:20.835 : Davidson's Risk
00:12:58.502 : Crash Landing
00:14:58.669 : The Hunted
00:17:37.869 : A World Upside-Down
00:21:05.503 : The Slave Trader
00:25:25.337 : A New Owner
00:27:55.171 : The Dinner Party
00:34:20.505 : Ari's Admirer
00:36:38.839 : The Thing From the Sky
00:38:13.339 : Escape
00:41:33.439 : An Ape Ally
00:46:15.941 : Back to the Pod
00:52:32.309 : Martial Law
00:59:32.277 : A Way to Calima
01:07:28.777 : Call to Arms
01:16:28.779 : A Human Leader
01:22:55.380 : Not So Different
01:27:41.047 : The Humans' Power
01:34:44.048 : Krull's Last Stand
01:39:20.915 : Thade's New Power
01:45:28.048 : A Chance to Go Back
01:52:48.916 : End Titles
pic pic pic pic pic

Этот торрент недоступен для скачивания без регистрации, однако доступен по публичной magnet-ссылке (источники с публичных трекеров). Перед использованием ссылки прочтите, пожалуйста Пользовательское соглашение, а также как можно дольше оставайтесь на раздаче! Для того, чтобы скачать сам торрент-файл (который видит больше источников), а также для того, чтобы поблагодарить релизера, вам необходимо зарегистрироваться. Если регистрироваться лень - вы можете также попробовать скачать релиз по нашим партнерским ссылкам ниже. Кроме того, зарегистрированным пользователям не показывается всплывающая реклама при скачивании.

[underverse.su].t35783.torrent
Трекер: Зарегистрирован   [ 29.01.2014 14:01 ]  

Статус: проверено (by garry at 29.01.2014 22:44)
Поблагодарили: 1 человек
Тип торрента: публичный - доступные источники с открытых трекеров: 
Размер: 22,35 GB (занимает 5,1 DVDR, для записи нужно 6 болванок DVDR/RW)
 
 
Похожие темы
Форум Тема Автор Торрент Отв. Посл. сооб.
Зарубежное кино [DVDRip, Low-Res HDRip, и т.д.] Планета обезьян / Planet of the Apes (Тим Бёртон) [2001 г., Фантастика, боевик, триллер, приключения, HDRip] Dub 90ytr90
5 | 1

0 | 1496

43

26.12.2012 17:06

Зарубежное кино [DVDRip, Low-Res HDRip, и т.д.] Планета обезьян / Planet of the Apes (Франклин Дж Шаффнер) [1968 г., фантастика, приключения, BDRip] Dub + Original 90ytr90
1 | 0

0 | 944

7

26.12.2012 17:26

Зарубежное кино [DVDRip, Low-Res HDRip, и т.д.] Планета обезьян: Революция / Dawn of the Planet of the Apes (Мэтт Ривз) [2014 г., Фантастика, Боевик, Драма, HDRip] Dub (RUS, Лицензия) + AVO (RUS, Д. Есарев) + Original (ENG) + Subs (RUS, ENG) Ведьмочка
1 | 0

0 | 1089

17

12.11.2014 04:20

Зарубежное кино [DVDRip, Low-Res HDRip, и т.д.] Планета обезьян: Революция / Dawn of the Planet of the Apes (Мэтт Ривз / Matt Reeves) [2014, Фантастика, боевик, драма, BDRip-AVC] Dub (RUS, BD CEE) + Original (ENG) + Subs (RUS, ENG, UKR) viktor.r-79
1 | 1

0 | 1141

30

13.11.2014 10:37

Зарубежное кино [DVDRip, Low-Res HDRip, и т.д.] Планета обезьян: Революция / Dawn of the Planet of the Apes (Мэтт Ривз / Matt Reeves) [2014 г., фантастика, боевик, драма, HDRip] Dub 90ytr90
114 | 3

0 | 1034

43

24.11.2014 16:54

Зарубежное кино [DVDRip, Low-Res HDRip, и т.д.] Планета обезьян: Революция / Dawn of the Planet of the Apes (Мэтт Ривз / Matt Reeves) [2014 г., фантастика, боевик, драма, HDRip] Dub 90ytr90
30 | 0

0 | 751

22

24.11.2014 17:34

T Зарубежное кино [DVDRip, Low-Res HDRip, и т.д.] Планета обезьян: Война / War for the Planet of the Apes (Мэтт Ривз) [2017 г., фантастика, боевик, триллер, драма, приключения, HDTVRip] Dub (звук с TS) makkol
9 | 3

0 | 1407

13

01.10.2017 21:22

T Зарубежное кино [DVDRip, Low-Res HDRip, и т.д.] Планета обезьян: Война / War for the Planet of the Apes (Мэтт Ривз) [2017 г., фантастика, боевик, триллер, драма, приключения, HDTVRip] MVO (@MUZOBOZ@) makkol
3 | 0

0 | 961

33

03.10.2017 21:42

T Зарубежное кино [DVDRip, Low-Res HDRip, и т.д.] Планета обезьян: Война / War for the Planet of the Apes (Мэтт Ривз) [2017 г., фантастика, боевик, триллер, драма, приключения, HDTVRip] Dub (Line) makkol
0 | 0

0 | 950

31

06.10.2017 20:37

T Зарубежное кино [DVDRip, Low-Res HDRip, и т.д.] Планета обезьян: Война / War for the Planet of the Apes (Мэтт Ривз) [2017 г., фантастика, боевик, триллер, драма, приключения, WEB-DLRip] Dub (Line) makkol
6 | 0

0 | 721

9

09.10.2017 21:22


Яндекс.Метрика powered by Sphinx


В Н И М А Н И Е
Сайт не распространяет и не хранит электронные версии произведений, а лишь бесплатно и без коммерческой выгоды (не требуя взамен платы,
SMS и т.д.) предоставляет доступ к создаваемому пользователями каталогу ссылок на торрент-файлы, которые содержат только списки хеш-сумм.
Убедительная просьба с жалобами обращаться напрямую к пользователю, разместившему торрент файл.

Вверх