Loading...
Error

Гладиатор / Gladiator (Ридли Скотт / Ridley Scott) [2000, историческая драма, Blu-ray disc (custom) 1080p] 10th Anniversary Remastered Edition / 2-в-1: театральная и расширенная версии Sub rus + Original eng

Статистика раздачи
Размер:  45,32 GB   |    Зарегистрирован:  4 года 4 месяца   |    Скачан:  3 раза

Полного источника не было: 6 месяцев

Сидов:  0  |  0 KB/s  ]   Личеров:  0  |  0 KB/s  ]

* - сиды/пиры с внешних источников

   
 
Автор Сообщение

uzi2009 Пол:Муж

14-Фев-2014 22:24

Гладиатор / Gladiator

10th Anniversary Remastered Edition / 2-в-1: театральная и расширенная версии

Страна: США
Студия: Universal Pictures
Жанр: Историческая драма
Год выпуска: 2000
Продолжительность: 02:34:58 / 02:50:56

Перевод (театральная версия): профессиональный многоголосный закадровый
Перевод (расширенная версия): профессиональный (полное дублирование)
Cубтитры: русские (только на англ. текст и комменты)
Оригинальная аудиодорожка: английский

Режиссер: Ридли Скотт / Ridley Scott

В ролях: Рассел Кроу /Russell Crowe/, Хоакин Феникс /Joaquin Phoenix/, Конни Нильсен /Connie Nielsen/, Оливер Рид /Oliver Reed/, Ричард Харрис /Richard Harris/, Дерек Джекоби /Derek Jacobi/, Джимон Хунсу /Djimon Hounsou/, Дэвид Скофилд /David Schofield/, Джон Шрэпнел /John Shrapnel/, Томас Арана /Tomas Arana/

Описание: В великой Римской империи не было военачальника, равного генералу Максимусу. Непобедимые легионы, которыми командовал этот благородный воин, боготворили его и могли последовать за ним даже в ад.

Но случилось так, что отважный Максимус, готовый сразиться с любым противником в честном бою, оказался бессилен против вероломных придворных интриг. Генерала предали и приговорили к смерти. Чудом избежав гибели, Максимус становится гладиатором.

Быстро снискав себе славу в кровавых поединках, он оказывается в знаменитом римском Колизее, на арене которого он встретится в смертельной схватке со своим заклятым врагом…

Доп. информация:
IMDB 8.5/10
КиноПоиск.Ru
Отличия в театральной и расширенной версиях (15:56 мин.)

Отличия от лицензионного CEE-издания:
Видео заменено на Remastered Edition

Диск пересобирал сам с помощью BD Reauthor и Scenarist BD 5.1.3. Релиз сделан на основе двух изданий (US и CEE). В CEE-издании видео заменено на Remastered Edition. Больше никаких изменений не производилось. Описание стырил у Машеньки (с особым цинизмом), за что ей спасибо.

Для просмотра в TotalMedia Theatre не нужно трогать папку AACS - я её упаковал в архив (кому надо, распакуют "в текущую папку")
Воспроизведение проверено в TotalMedia Theatre 3.0.1.185 и эмуляторе BD-плеера SONIC Scenarist QC 1.1 и 1.5.

Тип релиза: Blu-ray disc BD-50 (custom)
Контейнер: M2TS
Видеопоток: 1920x1080p (2.35:1), 23.976 fps, H.264, ~17685 kbps
Аудиопоток №1 (JPN): DTS 5.1, 48 kHz, 24 bit, 768 kbps
Аудиопоток №2 (ENG): DTS-HD MA 5.1, 48 kHz, 24 bit, ~4436/4408 kbps lossless (core: DTS 5.1, 48 kHz, 24 bit, 1536 kbps)
Аудиопоток №3 (CES): DTS 5.1, 48 kHz, 24 bit, 768 kbps
Аудиопоток №4 (HUN): DTS 5.1, 48 kHz, 24 bit, 768 kbps
Аудиопоток №5 (POL): DTS 5.1, 48 kHz, 24 bit, 768 kbps
Аудиопоток №6 (RUS): DTS 5.1, 48 kHz, 24 bit, 768 kbps
Аудиопоток №7 (RUS): DTS 5.1, 48 kHz, 24 bit, 768 kbps
Аудиопоток №8 (THA): DTS 5.1, 48 kHz, 24 bit, 768 kbps
Аудиопоток №9 (ENG): DD Surround 2.0, 48 kHz, 192 kbps
Аудиопоток №10 (ENG): DD Surround 2.0, 48 kHz, 192 kbps
Аудиопоток №11 (ENG): DD 2.0, 48 kHz, 224 kbps
* Комментарий с участием режиссера Ридли Скотта, монтажера Пьетро Скалиа и оператора Джона Мэтисона (субтитры)
* Удаленные сцены с комментарием Ридли Скотта:
o После битвы (1 мин, HD)
o В поисках силы (1 мин, HD)
o Писец (2 мин, HD)
o Сцена на рынке (1 мин, HD)
o Постановка (1 мин, HD)
o Встреча в доме Гракха (4 мин, HD)
o Отец и сын (2 мин, HD)
o Казнь (3 мин, HD)
o Запасы зерна (2 мин, HD)
o Кругом соглядатаи (1 мин, HD)
o Еще один враг (1 мин, HD)
o Борьба с огнем (1 мин, HD)
o Квинтий покоряется (1 мин, HD)
* U-Control:
o Скрижали познания
o Виды Элизия: Тематический портал
* BD-Live
* Комментарий к фильму с участием режиссера Ридли Скотта и актера Рассела Кроу (субтитры)
* Вступительное слово Ридли Скотта (1 мин, субтитры, SD)
* U-Control:
o Скрижали познания
o Виды Элизия: Тематический портал
* BD-Live
DISC INFO:

Disc Title: Gladiator (CEE Remastered)
Disc Size: 48 666 212 784 bytes
Protection: AACS
BD-Java: Yes
BDInfo: 0.5.2


PLAYLIST REPORT:

Name: 00000.MPLS
Size: 39 607 664 640 bytes
Length: 2:50:56 (h:m:s)
Total Bitrate: 30,89 Mbps
Description:

VIDEO:

Codec Bitrate Description
----- ------- -----------
MPEG-4 AVC Video 17685 kbps 1080p / 23,976 fps / 16:9 / High Profile 4.1

AUDIO:

Codec Language Bitrate Description
----- -------- ------- -----------
DTS-HD Master Audio English 4408 kbps 5.1 / 48 kHz / 4408 kbps / 24-bit (DTS Core: 5.1 / 48 kHz / 1509 kbps / 24-bit)
DTS Audio Czech 768 kbps 5.1 / 48 kHz / 768 kbps / 24-bit
DTS Audio Hungarian 768 kbps 5.1 / 48 kHz / 768 kbps / 24-bit
DTS Audio Japanese 768 kbps 5.1 / 48 kHz / 768 kbps / 24-bit
DTS Audio Polish 768 kbps 5.1 / 48 kHz / 768 kbps / 24-bit
DTS Audio Russian 768 kbps 5.1 / 48 kHz / 768 kbps / 24-bit
DTS Audio Russian 768 kbps 5.1 / 48 kHz / 768 kbps / 24-bit
DTS Audio Thai 768 kbps 5.1 / 48 kHz / 768 kbps / 24-bit
Dolby Digital Audio English 192 kbps 2.0 / 48 kHz / 192 kbps / Dolby Surround
Dolby Digital Audio English 192 kbps 2.0 / 48 kHz / 192 kbps / Dolby Surround
Dolby Digital Audio English 224 kbps 2.0 / 48 kHz / 224 kbps

SUBTITLES:

Codec Language Bitrate Description
----- -------- ------- -----------
Presentation Graphics English 24,364 kbps
Presentation Graphics Bulgarian 21,002 kbps
Presentation Graphics Croatian 19,770 kbps
Presentation Graphics Czech 20,137 kbps
Presentation Graphics Czech 0,316 kbps
Presentation Graphics French 0,030 kbps
Presentation Graphics German 0,030 kbps
Presentation Graphics Greek 23,280 kbps
Presentation Graphics Greek 66,114 kbps
Presentation Graphics Greek 53,231 kbps
Presentation Graphics Hebrew 13,118 kbps
Presentation Graphics Hungarian 21,982 kbps
Presentation Graphics Hungarian 0,311 kbps
Presentation Graphics Icelandic 22,082 kbps
Presentation Graphics Italian 0,030 kbps
Presentation Graphics Japanese 14,601 kbps
Presentation Graphics Japanese 36,844 kbps
Presentation Graphics Japanese 32,277 kbps
Presentation Graphics Japanese 0,246 kbps
Presentation Graphics Polish 21,304 kbps
Presentation Graphics Polish 55,091 kbps
Presentation Graphics Polish 47,586 kbps
Presentation Graphics Portuguese 0,030 kbps
Presentation Graphics Romanian 19,767 kbps
Presentation Graphics Russian 66,444 kbps
Presentation Graphics Russian 54,757 kbps
Presentation Graphics Russian 0,386 kbps
Presentation Graphics Spanish 0,030 kbps
Presentation Graphics Spanish 0,030 kbps
Presentation Graphics Thai 16,666 kbps
Presentation Graphics Thai 0,298 kbps
Presentation Graphics Turkish 22,475 kbps

FILES:

Name Time In Length Size Total Bitrate
---- ------- ------ ---- -------------
00135.M2TS 0:00:00.000 0:17:13.782 4 060 483 584 31 422
00009.M2TS 0:17:13.782 0:01:44.687 403 415 040 30 828
00137.M2TS 0:18:58.470 0:13:52.248 3 256 940 544 31 307
00123.M2TS 0:32:50.718 0:00:50.717 192 976 896 30 440
00138.M2TS 0:33:41.436 0:20:27.559 4 788 350 976 31 206
00127.M2TS 0:54:08.995 0:01:33.343 358 699 008 30 742
00140.M2TS 0:55:42.338 0:00:27.944 111 058 944 31 794
00128.M2TS 0:56:10.283 0:01:52.904 441 944 064 31 315
00139.M2TS 0:58:03.187 0:12:14.024 2 892 134 400 31 521
00122.M2TS 1:10:17.212 0:00:49.424 193 437 696 31 310
00145.M2TS 1:11:06.637 0:10:31.464 2 465 765 376 31 239
00124.M2TS 1:21:38.101 0:04:23.805 1 008 101 376 30 571
00132.M2TS 1:26:01.906 0:15:51.408 3 765 135 360 31 659
00126.M2TS 1:41:53.315 0:02:24.894 550 600 704 30 400
00141.M2TS 1:44:18.210 0:04:27.976 1 048 571 904 31 303
00130.M2TS 1:48:46.186 0:03:25.121 787 630 080 30 719
00136.M2TS 1:52:11.307 0:12:30.916 2 946 453 504 31 390
00133.M2TS 2:04:42.224 0:01:19.913 310 695 936 31 103
00142.M2TS 2:06:02.137 0:04:01.658 950 661 120 31 471
00134.M2TS 2:10:03.795 0:05:20.778 1 231 896 576 30 723
00143.M2TS 2:15:24.574 0:09:13.261 2 146 043 904 31 031
00125.M2TS 2:24:37.835 0:00:50.967 198 838 272 31 210
00144.M2TS 2:25:28.803 0:05:44.344 1 347 545 088 31 307
00129.M2TS 2:31:13.147 0:02:53.047 669 935 616 30 971
00147.M2TS 2:34:06.195 0:09:34.073 2 151 401 472 29 981
00131.M2TS 2:43:40.268 0:07:16.644 1 328 947 200 24 348

CHAPTERS:

Number Time In Length Avg Video Rate Max 1-Sec Rate Max 1-Sec Time Max 5-Sec Rate Max 5-Sec Time Max 10Sec Rate Max 10Sec Time Avg Frame Size Max Frame Size Max Frame Time
------ ------- ------ -------------- -------------- -------------- -------------- -------------- -------------- -------------- -------------- -------------- --------------
1 0:00:00.000 0:07:13.307 17 111 kbps 26 391 kbps 00:03:02.807 22 975 kbps 00:01:41.351 21 929 kbps 00:01:41.351 89 200 bytes 446 213 bytes 00:00:45.128
2 0:07:13.307 0:05:36.794 18 587 kbps 32 468 kbps 00:08:17.246 27 680 kbps 00:08:17.121 26 198 kbps 00:08:14.869 96 903 bytes 380 596 bytes 00:08:18.206
3 0:12:50.102 0:05:54.687 18 583 kbps 31 937 kbps 00:18:08.462 26 198 kbps 00:18:06.877 24 511 kbps 00:15:46.445 96 884 bytes 318 708 bytes 00:12:51.103
4 0:18:44.790 0:04:44.534 18 815 kbps 32 261 kbps 00:22:46.740 30 773 kbps 00:23:15.894 30 355 kbps 00:22:51.036 98 094 bytes 375 178 bytes 00:23:19.815
5 0:23:29.324 0:09:29.068 17 549 kbps 28 983 kbps 00:29:13.334 26 853 kbps 00:29:10.707 24 981 kbps 00:31:02.777 91 491 bytes 300 017 bytes 00:29:22.802
6 0:32:58.393 0:04:36.484 16 682 kbps 24 678 kbps 00:33:26.337 21 650 kbps 00:33:24.293 21 267 kbps 00:33:19.288 86 971 bytes 256 352 bytes 00:32:59.227
7 0:37:34.877 0:03:15.862 16 375 kbps 24 072 kbps 00:39:20.399 23 447 kbps 00:39:20.483 22 868 kbps 00:39:16.228 85 370 bytes 249 662 bytes 00:39:19.523
8 0:40:50.739 0:06:41.984 20 143 kbps 33 658 kbps 00:42:33.801 31 919 kbps 00:45:45.284 31 396 kbps 00:45:44.032 105 016 bytes 465 065 bytes 00:42:39.181
9 0:47:32.724 0:04:03.117 17 943 kbps 35 514 kbps 00:47:46.780 30 921 kbps 00:47:36.436 27 817 kbps 00:47:36.436 93 548 bytes 388 342 bytes 00:47:41.149
10 0:51:35.842 0:04:08.539 17 285 kbps 29 364 kbps 00:53:54.689 25 775 kbps 00:54:43.446 23 753 kbps 00:54:40.819 90 118 bytes 386 669 bytes 00:53:55.231
11 0:55:44.382 0:06:36.896 18 750 kbps 32 430 kbps 01:01:27.767 28 701 kbps 00:57:38.997 28 242 kbps 01:01:44.242 97 756 bytes 329 146 bytes 00:57:43.042
12 1:02:21.279 0:07:35.705 17 369 kbps 28 285 kbps 01:08:26.268 27 401 kbps 01:08:26.227 25 806 kbps 01:08:26.227 90 553 bytes 442 579 bytes 01:08:27.269
13 1:09:56.984 0:09:11.300 18 545 kbps 33 099 kbps 01:11:12.559 30 192 kbps 01:11:12.559 29 323 kbps 01:11:10.057 96 683 bytes 378 069 bytes 01:17:23.889
14 1:19:08.285 0:10:13.362 16 863 kbps 32 351 kbps 01:25:53.398 31 022 kbps 01:25:44.430 29 831 kbps 01:25:44.430 87 914 bytes 337 137 bytes 01:25:48.476
15 1:29:21.647 0:07:50.136 18 984 kbps 32 763 kbps 01:35:28.013 28 727 kbps 01:36:32.328 25 578 kbps 01:35:27.263 98 972 bytes 305 933 bytes 01:35:53.455
16 1:37:11.784 0:04:24.013 17 755 kbps 29 110 kbps 01:37:32.471 24 555 kbps 01:37:31.178 23 050 kbps 01:37:31.470 92 565 bytes 388 481 bytes 01:38:09.216
17 1:41:35.797 0:10:23.039 18 021 kbps 32 389 kbps 01:41:59.529 28 869 kbps 01:41:57.152 25 213 kbps 01:41:52.147 93 953 bytes 296 552 bytes 01:51:34.812
18 1:51:58.836 0:04:37.443 16 629 kbps 24 247 kbps 01:55:28.838 21 382 kbps 01:55:24.834 20 144 kbps 01:55:07.275 86 697 bytes 301 290 bytes 01:55:05.064
19 1:56:36.280 0:04:07.205 19 389 kbps 26 497 kbps 01:59:17.024 23 623 kbps 01:57:31.878 22 737 kbps 01:57:14.193 101 084 bytes 326 376 bytes 02:00:37.480
20 2:00:43.486 0:03:58.738 18 007 kbps 25 186 kbps 02:00:46.363 22 265 kbps 02:00:43.486 21 832 kbps 02:00:43.486 93 882 bytes 317 178 bytes 02:01:23.567
21 2:04:42.224 0:07:36.789 18 277 kbps 30 123 kbps 02:08:00.005 25 971 kbps 02:11:43.895 24 461 kbps 02:11:38.849 95 290 bytes 321 118 bytes 02:07:15.127
22 2:12:19.014 0:01:13.573 15 491 kbps 17 863 kbps 02:12:23.894 17 188 kbps 02:12:21.349 16 466 kbps 02:12:54.132 80 763 bytes 244 680 bytes 02:13:32.587
23 2:13:32.587 0:10:42.850 18 063 kbps 25 218 kbps 02:21:46.998 23 663 kbps 02:20:51.651 22 904 kbps 02:20:52.235 94 171 bytes 318 061 bytes 02:13:45.976
24 2:24:15.438 0:04:33.231 18 880 kbps 26 529 kbps 02:27:17.870 23 988 kbps 02:27:54.573 22 478 kbps 02:28:36.365 98 432 bytes 287 688 bytes 02:28:44.331
25 2:28:48.669 0:05:32.081 17 159 kbps 26 013 kbps 02:32:11.288 23 299 kbps 02:32:07.743 21 825 kbps 02:32:02.613 89 458 bytes 275 154 bytes 02:31:12.604
26 2:34:20.751 0:04:22.804 17 921 kbps 27 176 kbps 02:36:12.195 24 965 kbps 02:35:43.625 23 083 kbps 02:36:10.193 93 431 bytes 408 829 bytes 02:35:46.753
27 2:38:43.555 0:04:14.170 16 699 kbps 30 865 kbps 02:40:10.475 25 855 kbps 02:40:09.474 21 708 kbps 02:40:09.474 87 058 bytes 324 916 bytes 02:38:44.598
28 2:42:57.726 0:07:59.187 12 165 kbps 30 640 kbps 02:43:57.577 29 989 kbps 02:43:57.160 29 114 kbps 02:43:52.238 63 428 bytes 341 061 bytes 02:50:51.699
PLAYLIST REPORT:

Name: 00002.MPLS
Size: 35 935 936 512 bytes
Length: 2:34:58 (h:m:s)
Total Bitrate: 30,92 Mbps
Description:

VIDEO:

Codec Bitrate Description
----- ------- -----------
MPEG-4 AVC Video 17661 kbps 1080p / 23,976 fps / 16:9 / High Profile 4.1

AUDIO:

Codec Language Bitrate Description
----- -------- ------- -----------
DTS-HD Master Audio English 4436 kbps 5.1 / 48 kHz / 4436 kbps / 24-bit (DTS Core: 5.1 / 48 kHz / 1509 kbps / 24-bit)
DTS Audio Czech 768 kbps 5.1 / 48 kHz / 768 kbps / 24-bit
DTS Audio Hungarian 768 kbps 5.1 / 48 kHz / 768 kbps / 24-bit
DTS Audio Japanese 768 kbps 5.1 / 48 kHz / 768 kbps / 24-bit
DTS Audio Polish 768 kbps 5.1 / 48 kHz / 768 kbps / 24-bit
DTS Audio Russian 768 kbps 5.1 / 48 kHz / 768 kbps / 24-bit
DTS Audio Russian 768 kbps 5.1 / 48 kHz / 768 kbps / 24-bit
DTS Audio Thai 768 kbps 5.1 / 48 kHz / 768 kbps / 24-bit
Dolby Digital Audio English 192 kbps 2.0 / 48 kHz / 192 kbps / Dolby Surround
Dolby Digital Audio English 192 kbps 2.0 / 48 kHz / 192 kbps / Dolby Surround
Dolby Digital Audio English 224 kbps 2.0 / 48 kHz / 224 kbps

SUBTITLES:

Codec Language Bitrate Description
----- -------- ------- -----------
Presentation Graphics English 24,401 kbps
Presentation Graphics Bulgarian 21,096 kbps
Presentation Graphics Croatian 19,874 kbps
Presentation Graphics Czech 20,334 kbps
Presentation Graphics Czech 0,345 kbps
Presentation Graphics French 0,033 kbps
Presentation Graphics German 0,033 kbps
Presentation Graphics Greek 23,196 kbps
Presentation Graphics Greek 60,150 kbps
Presentation Graphics Greek 64,183 kbps
Presentation Graphics Hebrew 13,187 kbps
Presentation Graphics Hungarian 22,067 kbps
Presentation Graphics Hungarian 0,337 kbps
Presentation Graphics Icelandic 22,066 kbps
Presentation Graphics Italian 0,033 kbps
Presentation Graphics Japanese 14,526 kbps
Presentation Graphics Japanese 33,533 kbps
Presentation Graphics Japanese 38,985 kbps
Presentation Graphics Japanese 0,271 kbps
Presentation Graphics Polish 21,357 kbps
Presentation Graphics Polish 50,187 kbps
Presentation Graphics Polish 57,113 kbps
Presentation Graphics Portuguese 0,033 kbps
Presentation Graphics Romanian 19,840 kbps
Presentation Graphics Russian 60,464 kbps
Presentation Graphics Russian 65,671 kbps
Presentation Graphics Russian 0,420 kbps
Presentation Graphics Spanish 0,033 kbps
Presentation Graphics Spanish 0,033 kbps
Presentation Graphics Thai 16,785 kbps
Presentation Graphics Thai 0,326 kbps
Presentation Graphics Turkish 22,493 kbps

FILES:

Name Time In Length Size Total Bitrate
---- ------- ------ ---- -------------
00135.M2TS 0:00:00.000 0:17:13.782 4 060 483 584 31 422
00146.M2TS 0:17:13.782 0:00:35.702 138 153 984 30 957
00137.M2TS 0:17:49.485 0:13:52.248 3 256 940 544 31 307
00149.M2TS 0:31:41.733 0:00:29.362 111 654 912 30 421
00138.M2TS 0:32:11.095 0:20:27.559 4 788 350 976 31 206
00151.M2TS 0:52:38.655 0:00:35.285 135 450 624 30 710
00140.M2TS 0:53:13.940 0:00:27.944 111 058 944 31 794
00150.M2TS 0:53:41.885 0:00:31.406 122 843 136 31 291
00139.M2TS 0:54:13.291 0:12:14.024 2 892 134 400 31 521
00154.M2TS 1:06:27.316 0:00:35.076 136 310 784 31 089
00145.M2TS 1:07:02.393 0:10:31.464 2 465 765 376 31 239
00155.M2TS 1:17:33.857 0:00:29.863 115 064 832 30 825
00132.M2TS 1:18:03.720 0:15:51.408 3 765 135 360 31 659
00148.M2TS 1:33:55.129 0:00:45.879 176 105 472 30 708
00141.M2TS 1:34:41.008 0:04:27.976 1 048 571 904 31 303
00157.M2TS 1:39:08.984 0:00:37.245 142 854 144 30 684
00136.M2TS 1:39:46.230 0:12:30.916 2 946 453 504 31 390
00156.M2TS 1:52:17.146 0:00:54.554 212 066 304 31 098
00142.M2TS 1:53:11.701 0:04:01.658 950 661 120 31 471
00158.M2TS 1:57:13.359 0:03:14.986 753 205 248 30 903
00143.M2TS 2:00:28.345 0:09:13.261 2 146 043 904 31 031
00159.M2TS 2:09:41.606 0:00:32.240 125 835 264 31 224
00144.M2TS 2:10:13.847 0:05:44.344 1 347 545 088 31 307
00152.M2TS 2:15:58.191 0:02:23.351 555 718 656 31 013
00147.M2TS 2:18:21.543 0:09:34.073 2 151 401 472 29 981
00153.M2TS 2:27:55.616 0:07:03.131 1 280 126 976 24 203

CHAPTERS:

Number Time In Length Avg Video Rate Max 1-Sec Rate Max 1-Sec Time Max 5-Sec Rate Max 5-Sec Time Max 10Sec Rate Max 10Sec Time Avg Frame Size Max Frame Size Max Frame Time
------ ------- ------ -------------- -------------- -------------- -------------- -------------- -------------- -------------- -------------- -------------- --------------
1 0:00:00.000 0:07:13.307 17 111 kbps 26 391 kbps 00:03:02.807 22 975 kbps 00:01:41.351 21 929 kbps 00:01:41.351 89 200 bytes 446 213 bytes 00:00:45.128
2 0:07:13.307 0:05:36.794 18 587 kbps 32 468 kbps 00:08:17.246 27 680 kbps 00:08:17.121 26 198 kbps 00:08:14.869 96 903 bytes 380 596 bytes 00:08:18.206
3 0:12:50.102 0:04:38.903 18 689 kbps 27 219 kbps 00:15:49.198 26 013 kbps 00:15:49.198 24 511 kbps 00:15:46.445 97 435 bytes 318 708 bytes 00:12:51.103
4 0:17:29.006 0:04:51.332 18 848 kbps 32 261 kbps 00:21:37.754 30 773 kbps 00:22:06.908 30 355 kbps 00:21:42.050 98 263 bytes 375 178 bytes 00:22:10.829
5 0:22:20.338 0:09:29.068 17 544 kbps 28 983 kbps 00:28:04.349 26 853 kbps 00:28:01.721 24 981 kbps 00:29:53.791 91 464 bytes 300 017 bytes 00:28:13.817
6 0:31:49.407 0:04:15.129 16 583 kbps 24 282 kbps 00:31:55.997 21 280 kbps 00:31:53.953 20 771 kbps 00:31:49.407 86 457 bytes 233 741 bytes 00:31:56.414
7 0:36:04.537 0:03:15.862 16 375 kbps 24 072 kbps 00:37:50.059 23 447 kbps 00:37:50.142 22 868 kbps 00:37:45.888 85 370 bytes 249 662 bytes 00:37:49.183
8 0:39:20.399 0:06:41.984 20 143 kbps 33 658 kbps 00:41:03.460 31 919 kbps 00:44:14.943 31 396 kbps 00:44:13.692 105 016 bytes 465 065 bytes 00:41:08.841
9 0:46:02.384 0:04:03.117 17 943 kbps 35 514 kbps 00:46:16.440 30 921 kbps 00:46:06.096 27 817 kbps 00:46:06.096 93 548 bytes 388 342 bytes 00:46:10.809
10 0:50:05.502 0:03:10.481 17 067 kbps 29 364 kbps 00:52:24.349 24 718 kbps 00:50:12.467 23 049 kbps 00:50:08.088 88 978 bytes 386 669 bytes 00:52:24.891
11 0:53:15.984 0:05:15.398 18 945 kbps 32 430 kbps 00:57:37.871 28 506 kbps 00:57:58.016 28 242 kbps 00:57:54.345 98 771 bytes 310 282 bytes 00:53:53.146
12 0:58:31.382 0:07:35.705 17 369 kbps 28 285 kbps 01:04:36.372 27 401 kbps 01:04:36.330 25 806 kbps 01:04:36.330 90 553 bytes 442 579 bytes 01:04:37.373
13 1:06:07.088 0:08:56.994 18 559 kbps 33 099 kbps 01:07:08.315 30 192 kbps 01:07:08.315 29 323 kbps 01:07:05.813 96 761 bytes 378 069 bytes 01:13:19.645
14 1:15:04.082 0:06:19.420 16 164 kbps 26 756 kbps 01:15:34.237 22 378 kbps 01:15:33.987 19 988 kbps 01:17:43.074 84 271 bytes 309 246 bytes 01:15:38.867
15 1:21:23.503 0:07:50.136 18 983 kbps 32 763 kbps 01:27:29.827 28 727 kbps 01:28:34.142 25 578 kbps 01:27:29.077 98 971 bytes 305 933 bytes 01:27:55.269
16 1:29:13.639 0:04:50.331 17 861 kbps 29 110 kbps 01:29:34.285 25 069 kbps 01:33:58.966 23 050 kbps 01:29:33.284 93 121 bytes 388 481 bytes 01:30:11.030
17 1:34:03.971 0:05:29.829 17 667 kbps 25 711 kbps 01:36:31.118 23 801 kbps 01:36:28.407 22 318 kbps 01:36:02.590 92 107 bytes 288 639 bytes 01:36:31.160
18 1:39:33.801 0:04:37.443 16 989 kbps 32 901 kbps 01:39:34.718 26 542 kbps 01:39:33.842 23 789 kbps 01:39:33.801 88 573 bytes 316 851 bytes 01:39:34.760
19 1:44:11.244 0:04:07.205 19 390 kbps 26 497 kbps 01:46:51.947 23 623 kbps 01:45:06.800 22 737 kbps 01:44:49.116 101 088 bytes 326 376 bytes 01:48:12.402
20 1:48:18.450 0:03:58.738 18 006 kbps 25 186 kbps 01:48:21.286 22 174 kbps 01:48:18.742 21 814 kbps 01:48:18.450 93 877 bytes 317 178 bytes 01:48:58.490
21 1:52:17.188 0:06:00.193 17 766 kbps 30 123 kbps 01:55:09.569 25 311 kbps 01:55:06.357 23 399 kbps 01:55:01.018 92 625 bytes 321 118 bytes 01:54:24.690
22 1:58:17.381 0:01:13.573 16 578 kbps 20 191 kbps 01:58:22.261 19 393 kbps 01:58:19.675 18 477 kbps 01:58:51.707 86 428 bytes 267 822 bytes 01:59:30.913
23 1:59:30.955 0:09:48.296 18 294 kbps 27 638 kbps 01:59:41.340 26 259 kbps 01:59:41.340 25 837 kbps 01:59:38.462 95 375 bytes 353 718 bytes 01:59:44.301
24 2:09:19.251 0:04:14.504 18 945 kbps 26 529 kbps 02:12:02.914 23 988 kbps 02:12:39.618 22 478 kbps 02:13:21.409 98 772 bytes 287 688 bytes 02:13:29.376
25 2:13:33.755 0:05:02.385 17 076 kbps 30 187 kbps 02:16:26.636 26 074 kbps 02:16:22.924 23 603 kbps 02:16:17.919 89 028 bytes 275 154 bytes 02:15:57.649
26 2:18:36.140 0:04:22.804 17 923 kbps 27 176 kbps 02:20:27.543 24 965 kbps 02:19:58.973 23 083 kbps 02:20:25.541 93 443 bytes 408 829 bytes 02:20:02.101
27 2:22:58.945 0:04:14.170 16 694 kbps 30 865 kbps 02:24:25.823 25 855 kbps 02:24:24.822 21 708 kbps 02:24:24.822 87 035 bytes 324 916 bytes 02:22:59.946
28 2:27:13.115 0:07:45.631 12 162 kbps 22 191 kbps 02:28:01.705 21 768 kbps 02:28:01.497 21 364 kbps 02:28:00.371 63 415 bytes 384 837 bytes 02:30:15.756
pic pic pic
pic pic pic pic pic
Типичный вопрос: А чем ЭТО смотреть???
Ответ: Если без борьбы и со всеми удобствами, то в TotalMedia Theatre 3 Platinum, путем перетаскивания корневой папки с фильмом на окно плеера.

Этот торрент недоступен для скачивания без регистрации, однако доступен по публичной magnet-ссылке (источники с публичных трекеров). Перед использованием ссылки прочтите, пожалуйста Пользовательское соглашение, а также как можно дольше оставайтесь на раздаче! Для того, чтобы скачать сам торрент-файл (который видит больше источников), а также для того, чтобы поблагодарить релизера, вам необходимо зарегистрироваться. Если регистрироваться лень - вы можете также попробовать скачать релиз по нашим партнерским ссылкам ниже. Кроме того, зарегистрированным пользователям не показывается всплывающая реклама при скачивании.

[underverse.su].t36340.torrent
Трекер: Зарегистрирован   [ 14.02.2014 22:24 ]  

Статус: проверено (by garry at 15.02.2014 16:54)
Поблагодарили: 1 человек
Тип торрента: публичный - доступные источники с открытых трекеров: 
Размер: 45,32 GB (занимает 10,35 DVDR, для записи нужно 11 болванок DVDR/RW)
 
 
Похожие темы
Форум Тема Автор Торрент Отв. Посл. сооб.
Зарубежное кино [DVDRip, Low-Res HDRip, и т.д.] Гладиатор / Gladiator (режисерская версия) (Джон Мэтисон) [2000 г., боевик, драма, приключения, история, HDTVRip] floatrx
1 | 0

3 | 1436

34

19.02.2016 21:35

Зарубежное кино [DVDRip, Low-Res HDRip, и т.д.] Гладиатор / Gladiator (Ридли Скотт / Ridley Scott) [2000 г., боевик, драма, приключения, HDTVRip] [Theatrical Cut] [Open Matte] Dub 90ytr90
27 | 1

0 | 1013

8

19.02.2016 19:26

Зарубежное кино [DVDRip, Low-Res HDRip, и т.д.] Гладиатор / Gladiator (Ридли Скотт / Ridley Scott) [2000 г., боевик, драма, приключения, BDRip] [Extended Cut] AVO (Визгунов) 90ytr90
53 | 0

0 | 1280

7

09.09.2016 09:07

Зарубежное кино [HDDVDRip / BDRip / WEB-DL / HDTV 1080/720р] Гладиатор / Gladiator (Ридли Скотт / Ridley Scott) [2000 г., боевик, драма, приключения, BDRip 1080p] [Extended Cut] [10th Anniversary Remastered Edition] Dub + Sub (Rus, Eng) 90ytr90
5 | 1

0 | 1255

11

09.09.2016 08:53

Зарубежное кино [HDDVDRip / BDRip / WEB-DL / HDTV 1080/720р] Гладиатор / Gladiator (Ридли Скотт / Ridley Scott) [2000 г., боевик, драма, приключения, BDRip 720p] [Theatrical Cut] Dub + Sub (Rus, Eng) 90ytr90
14 | 0

0 | 903

5

09.09.2016 08:39

Зарубежное кино AVC Гладиатор / Gladiator (Ридли Скотт / Ridley Scott) [2000 г., боевик, история, драма, приключения, BDRip-AVC] Dub + Original (Eng) + Sub (Rus, Eng) Ripodelnia Ripodelnia
3 | 0

0 | 278

4

07.04.2018 16:16

Архив (зарубежное кино высокого качества) Гладиатор (Расширенная версия) / Gladiator *REMASTERED+* [Extended Cut] (Ридли Скотт) [2000 г., боевик, драма, приключения, DVD-5] uzi2009
0 | 0

1 | 1354

7

31.01.2018 17:19

15-Фев-2014 15:28

Топик был перенесен из форума Зарубежное кино HD-Video, Blu-Ray & DVD в форум Зарубежное кино [DVD / HDDVD / BD / Remux]


gari
 

uzi2009 Пол:Муж

15-Фев-2014 18:54

по ходу по моему всё таки не правильный перенесли в форум

uzi2009 Пол:Муж

15-Фев-2014 20:17

извиняюсь, не досмотрел, что форумы немного подкорректировали

Яндекс.Метрика powered by Sphinx


В Н И М А Н И Е
Сайт не распространяет и не хранит электронные версии произведений, а лишь бесплатно и без коммерческой выгоды (не требуя взамен платы,
SMS и т.д.) предоставляет доступ к создаваемому пользователями каталогу ссылок на торрент-файлы, которые содержат только списки хеш-сумм.
Убедительная просьба с жалобами обращаться напрямую к пользователю, разместившему торрент файл.

Вверх