Loading...
Error

Злые улицы / Mean Streets (Мартин Скорсезе / Martin Scorsese) [1973 г., драма, криминал, BD-Remux] MVO + 2xDVO + AVO + VO + Original

 
Автор Сообщение

garry Пол:Муж

01-Мар-2014 10:01

Злые улицы / Mean Streets


Год выпуска: 1973
Жанр: драма, криминал
Страна: США
Режиссер: Мартин Скорсезе / Martin Scorsese
В ролях: Харви Кейтель, Роберт Де Ниро, Дэвид Провэл, Эми Робинсон, Ричард Романус, Чезаре Данова, Виктор Арго, Джордж Меммоли, Ленни Скалетта, Дженни Белл
Сюжет фильма:
Чарли, племянник мафиозного босса из нью-йоркского квартала под названием Маленькая Италия, хочет стать владельцем собственного ресторана. Для этого ему необходимо добиться расположения богатого дядюшки, соблюдать приличия, проявлять респектабельность, но главное — держаться подальше от шизанутого дружка Джонни Боя, взламывающего почтовые ящики и занимающего деньги у ростовщиков без всякого намерения их вернуть.
/
Качество видео: BD-Remux

Продолжительность: 01:51:31
Формат: MKV
Видео: x264, 29861, 29861 kbps
Аудио #1: русский, многоголосый закадровый [профессиональный, ОРТ с VHS], AC3 2.0, 192 kbps
Аудио #2: русский, двухголосый закадровый [профессиональный, мужские роли Андрей Градов], AC3 2.0, 192 kbps
Аудио #3: русский, двухголосый закадровый [профессиональный], AC3 2.0, 192 kbps
Аудио #4: русский, одноголосый закадровый [авторский, Либергал], AC3 2.0, 192 kbps
Аудио #5: русский, одноголосый закадровый [любительский, Поздняков], AC3 2.0, 192 kbps
Аудио #6: английский, оригинал, LPCM 1.0, 768 kbps
Субтитры #1: тип: вшитые отключаемые, русский, формат: SRT
Субтитры #2: тип: вшитые отключаемые, английский, формат: SRT

Код:

General
 Unique ID : 172072496328033310777646013938942583813 (0x8173F51378B7330692C4373ADBE3A405)
 Complete name : J:\Mean.Streets.1973.1080p.Bluray.AVC.Remux.mkv
 Format : Matroska
 Format version : Version 2
 File size : 24.6 GiB
 Duration : 1h 51mn
 Overall bit rate : 31.6 Mbps
 Movie name : Mean.Streets.1973.1080p.Bluray.AVC.Remux
 Encoded date : UTC 2011-08-22 11:18:57
 Writing application : mkvmerge v4.9.1 ('Ich will') сборка от Jul 11 2011 23:53:15
 Writing library : libebml v1.2.1 + libmatroska v1.1.1

Video
 ID : 1
 Format : AVC
 Format/Info : Advanced Video Codec
 Format profile : High@L4.1
 Format settings, CABAC : Yes
 Format settings, ReFrames : 4 frames
 Codec ID : V_MPEG4/ISO/AVC
 Duration : 1h 51mn
 Bit rate mode : Variable
 Maximum bit rate : 35.0 Mbps
 Width : 1 920 pixels
 Height : 1 080 pixels
 Display aspect ratio : 16:9
 Frame rate : 24.000 fps
 Standard : NTSC
 Color space : YUV
 Chroma subsampling : 4:2:0
 Bit depth : 8 bits
 Scan type : Progressive
 Title : uralmix
 Color primaries : BT.709-5, BT.1361, IEC 61966-2-4, SMPTE RP177
 Transfer characteristics : BT.709-5, BT.1361
 Matrix coefficients : BT.709-5, BT.1361, IEC 61966-2-4 709, SMPTE RP177

Audio #1
 ID : 2
 Format : AC-3
 Format/Info : Audio Coding 3
 Mode extension : CM (complete main)
 Codec ID : A_AC3
 Duration : 1h 51mn
 Bit rate mode : Constant
 Bit rate : 192 Kbps
 Channel(s) : 2 channels
 Channel positions : Front: L R
 Sampling rate : 48.0 KHz
 Bit depth : 16 bits
 Compression mode : Lossy
 Stream size : 153 MiB (1%)
 Title : ОРТ
 Language : Russian

Audio #2
 ID : 3
 Format : AC-3
 Format/Info : Audio Coding 3
 Mode extension : CM (complete main)
 Codec ID : A_AC3
 Duration : 1h 51mn
 Bit rate mode : Constant
 Bit rate : 192 Kbps
 Channel(s) : 2 channels
 Channel positions : Front: L R
 Sampling rate : 48.0 KHz
 Bit depth : 16 bits
 Compression mode : Lossy
 Stream size : 153 MiB (1%)
 Title : двухголосый (Градов)
 Language : Russian

Audio #3
 ID : 4
 Format : AC-3
 Format/Info : Audio Coding 3
 Mode extension : CM (complete main)
 Codec ID : A_AC3
 Duration : 1h 51mn
 Bit rate mode : Constant
 Bit rate : 192 Kbps
 Channel(s) : 2 channels
 Channel positions : Front: L R
 Sampling rate : 48.0 KHz
 Bit depth : 16 bits
 Compression mode : Lossy
 Stream size : 153 MiB (1%)
 Title : двухголосый
 Language : Russian

Audio #4
 ID : 5
 Format : AC-3
 Format/Info : Audio Coding 3
 Mode extension : CM (complete main)
 Codec ID : A_AC3
 Duration : 1h 51mn
 Bit rate mode : Constant
 Bit rate : 192 Kbps
 Channel(s) : 2 channels
 Channel positions : Front: L R
 Sampling rate : 48.0 KHz
 Bit depth : 16 bits
 Compression mode : Lossy
 Stream size : 153 MiB (1%)
 Title : авторский - Григорий Либергал
 Language : Russian

Audio #5
 ID : 6
 Format : AC-3
 Format/Info : Audio Coding 3
 Mode extension : CM (complete main)
 Codec ID : A_AC3
 Duration : 1h 51mn
 Bit rate mode : Constant
 Bit rate : 192 Kbps
 Channel(s) : 2 channels
 Channel positions : Front: L R
 Sampling rate : 48.0 KHz
 Bit depth : 16 bits
 Compression mode : Lossy
 Stream size : 153 MiB (1%)
 Title : одноголосый - Константин Поздняков
 Language : Russian

Audio #6
 ID : 7
 Format : PCM
 Codec ID : A_PCM/INT/LIT
 Duration : 1h 51mn
 Bit rate mode : Constant
 Sampling rate : 48.0 KHz
 Bit depth : 16 bits
 Language : English

Text #1
 ID : 8
 Format : UTF-8
 Codec ID : S_TEXT/UTF8
 Codec ID/Info : UTF-8 Plain Text
 Title : Поздняков
 Language : Russian

Text #2
 ID : 9
 Format : UTF-8
 Codec ID : S_TEXT/UTF8
 Codec ID/Info : UTF-8 Plain Text
 Language : English

Menu
 00:00:00.000 : en:00:00:00.000
 00:02:57.667 : en:00:02:57.667
 00:11:36.125 : en:00:11:36.125
 00:20:25.125 : en:00:20:25.125
 00:26:51.875 : en:00:26:51.875
 00:36:20.708 : en:00:36:20.708
 00:48:18.375 : en:00:48:18.375
 00:55:41.125 : en:00:55:41.125
 01:00:08.542 : en:01:00:08.542
 01:06:14.625 : en:01:06:14.625
 01:11:34.000 : en:01:11:34.000
 01:21:30.542 : en:01:21:30.542
 01:27:24.208 : en:01:27:24.208
 01:37:10.583 : en:01:37:10.583
 01:43:04.708 : en:01:43:04.708
 01:50:05.708 : en:01:50:05.708
Релиз группы: Uralmix

pic pic pic
Для увеличения картинки щелкните мышкой по превью
[underverse.su].t36775.torrent
Трекер: Не зарегистрирован

Скачать

124 KB

Добавлен: 01.03.2014 09:57
Скачано: 0 раз  [ Список скачавших ]
   
 

24-Май-2018 22:42

Топик был перенесен из форума Зарубежное кино [DVD / HDDVD / BD / Remux] в форум Мусорка


[cron robot]
 

Яндекс.Метрика powered by Sphinx


В Н И М А Н И Е
Сайт не распространяет и не хранит электронные версии произведений, а лишь бесплатно и без коммерческой выгоды (не требуя взамен платы,
SMS и т.д.) предоставляет доступ к создаваемому пользователями каталогу ссылок на торрент-файлы, которые содержат только списки хеш-сумм.
Убедительная просьба с жалобами обращаться напрямую к пользователю, разместившему торрент файл.

Вверх