Loading...
Error

Служители закона / U.S. Marshals (Стюарт Бейрд / Stuart Baird) [1998 г., боевик, триллер, криминал, BDRemux 1080p] 2xDub + MVO (НТВ) + 3xAVO

Статистика раздачи
Размер:  40,06 GB   |    Зарегистрирован:  4 года 3 месяца   |    Скачан:  5 раз

Полного источника не было: 2 месяца 6 дней

Сидов:  0  |  0 KB/s  ]   Личеров:  0  |  0 KB/s  ]

* - сиды/пиры с внешних источников

   
 
Автор Сообщение

uzi2009 Пол:Муж

06-Мар-2014 21:37

Служители закона / U.S. Marshals


Год выпуска: 1998
Страна: США
Жанр: боевик, триллер, криминал
Продолжительность: 02:11:06
Перевод: Профессиональный (полное дублирование) 2 вида
Перевод: Профессиональный (многоголосый, закадровый) НТВ
Перевод: Авторский (одноголосый, закадровый) 3 варианта
Субтитры: русские, английские

Режиссер: Стюарт Бейрд / Stuart Baird

В ролях: Томми Ли Джонс, Уэсли Снайпс, Роберт Дауни мл., Джо Пантольяно, Дэниэл Робак, Том Вуд, ЛаТаня Ричардсон, Ирен Жакоб, Кейт Неллиган, Патрик Мэлахайд

Описание: Самолет, перевозивший заключенных, терпит аварию и совершает вынужденную посадку. Воспользовавшись ситуацией, из-под конвоя бежит особо опасный арестант - бывший секретный агент, обвиненный в убийстве двух других агентов. Но не только полиция и группа Джерарда идут по его следу; беглец представляет интерес и кое для кого еще. Он слишком много знает, и этот кое-кто желал бы его убрать...

Доп. информация:

Качество: BDRemux
Формат: MKV
Видео: MPEG-4 AVC Video 29933 kbps 1080p / 23.976 fps / 16:9 / High Profile 4.1
Аудио: Dolby Digital Audio Russian 5.1 / 48 kHz / 384 kbps | дубляж R5
Аудио: Dolby Digital Audio Russian 2.0 / 48 kHz / 192 kbps | дубляж Варус
Аудио: Dolby Digital Audio Russian 2.0 / 48 kHz / 192 kbps | НТВ
Аудио: Dolby Digital Audio Russian 2.0 / 48 kHz / 192 kbps | Кашкин
Аудио: DTS-HD Master Audio Russian 5.1 / 48 kHz / 4213 kbps / 24-bit (DTS Core: 5.1 / 48 kHz / 1509 kbps / 24-bit) | Гаврилов
Аудио: DTS-HD Master Audio Russian 5.1 / 48 kHz / 4222 kbps / 24-bit (DTS Core: 5.1 / 48 kHz / 1509 kbps / 24-bit) | Живов
Аудио: DTS-HD Master Audio English 5.1 / 48 kHz / 4390 kbps / 24-bit (DTS Core: 5.1 / 48 kHz / 1509 kbps / 24-bit)

Цитата:

Дорожки №5-6 получены наложением чистого голоса на центр декодированного DTS-HD-MA
За дубляж Варус Видео спасибо waren
General
Unique ID : 241604219856656099945848049016353676439 (0xB5C347B94D292A3BAECA7E6963E55C97)
Complete name : G:\U.S.Marshals.1998.1080p.Bluray.AVC.Remux.mkv
Format : Matroska
Format version : Version 2
File size : 40.1 GiB
Duration : 2h 11mn
Overall bit rate mode : Variable
Overall bit rate : 43.7 Mbps
Movie name : U.S.Marshals.1998.1080p.Bluray.AVC.Remux
Encoded date : UTC 2012-06-09 19:01:45
Writing application : mkvmerge v4.9.1 ('Ich will') сборка от Jul 11 2011 23:53:15
Writing library : libebml v1.2.1 + libmatroska v1.1.1

Video
ID : 1
Format : AVC
Format/Info : Advanced Video Codec
Format profile : High@L4.1
Format settings, CABAC : Yes
Format settings, ReFrames : 2 frames
Codec ID : V_MPEG4/ISO/AVC
Duration : 2h 11mn
Bit rate mode : Variable
Bit rate : 34.6 Mbps
Width : 1 920 pixels
Height : 1 080 pixels
Display aspect ratio : 16:9
Frame rate : 23.976 fps
Color space : YUV
Chroma subsampling : 4:2:0
Bit depth : 8 bits
Scan type : Progressive
Bits/(Pixel*Frame) : 0.696
Stream size : 31.7 GiB (79%)
Title : uralmix
Default : Yes
Forced : No

Audio #1
ID : 2
Format : AC-3
Format/Info : Audio Coding 3
Mode extension : CM (complete main)
Codec ID : A_AC3
Duration : 2h 11mn
Bit rate mode : Constant
Bit rate : 384 Kbps
Channel(s) : 6 channels
Channel positions : Front: L C R, Side: L R, LFE
Sampling rate : 48.0 KHz
Bit depth : 16 bits
Compression mode : Lossy
Stream size : 360 MiB (1%)
Title : дубляж R5
Language : Russian
Default : Yes
Forced : No

Audio #2
ID : 3
Format : AC-3
Format/Info : Audio Coding 3
Mode extension : CM (complete main)
Codec ID : A_AC3
Duration : 2h 11mn
Bit rate mode : Constant
Bit rate : 192 Kbps
Channel(s) : 2 channels
Channel positions : Front: L R
Sampling rate : 48.0 KHz
Bit depth : 16 bits
Compression mode : Lossy
Stream size : 180 MiB (0%)
Title : Варус Видео
Language : Russian
Default : No
Forced : No

Audio #3
ID : 4
Format : AC-3
Format/Info : Audio Coding 3
Mode extension : CM (complete main)
Codec ID : A_AC3
Duration : 2h 11mn
Bit rate mode : Constant
Bit rate : 192 Kbps
Channel(s) : 2 channels
Channel positions : Front: L R
Sampling rate : 48.0 KHz
Bit depth : 16 bits
Compression mode : Lossy
Stream size : 180 MiB (0%)
Title : НТВ
Language : Russian
Default : No
Forced : No

Audio #4
ID : 5
Format : AC-3
Format/Info : Audio Coding 3
Mode extension : CM (complete main)
Codec ID : A_AC3
Duration : 2h 11mn
Bit rate mode : Constant
Bit rate : 192 Kbps
Channel(s) : 2 channels
Channel positions : Front: L R
Sampling rate : 48.0 KHz
Bit depth : 16 bits
Compression mode : Lossy
Stream size : 180 MiB (0%)
Title : Александр Кашкин
Language : Russian
Default : No
Forced : No

Audio #5
ID : 6
Format : DTS
Format/Info : Digital Theater Systems
Format profile : MA / Core
Codec ID : A_DTS
Duration : 2h 11mn
Bit rate mode : Variable
Bit rate : 2 521 Kbps / 1 510 Kbps
Channel(s) : 6 channels
Channel positions : Front: L C R, Side: L R, LFE
Sampling rate : 48.0 KHz
Bit depth : 24 bits
Compression mode : Lossless / Lossy
Title : Андрей Гаврилов
Language : Russian
Default : No
Forced : No

Audio #6
ID : 7
Format : DTS
Format/Info : Digital Theater Systems
Format profile : MA / Core
Codec ID : A_DTS
Duration : 2h 11mn
Bit rate mode : Variable
Bit rate : 2 341 Kbps / 1 510 Kbps
Channel(s) : 6 channels
Channel positions : Front: L C R, Side: L R, LFE
Sampling rate : 48.0 KHz
Bit depth : 24 bits
Compression mode : Lossless / Lossy
Title : Юрий Живов
Language : Russian
Default : No
Forced : No

Audio #7
ID : 8
Format : DTS
Format/Info : Digital Theater Systems
Format profile : MA / Core
Codec ID : A_DTS
Duration : 2h 11mn
Bit rate mode : Variable
Bit rate : 2 440 Kbps / 1 510 Kbps
Channel(s) : 6 channels
Channel positions : Front: L C R, Side: L R, LFE
Sampling rate : 48.0 KHz
Bit depth : 24 bits
Compression mode : Lossless / Lossy
Language : English
Default : No
Forced : No

Text #1
ID : 9
Format : UTF-8
Codec ID : S_TEXT/UTF8
Codec ID/Info : UTF-8 Plain Text
Title : R5
Language : Russian
Default : No
Forced : No

Text #2
ID : 10
Format : UTF-8
Codec ID : S_TEXT/UTF8
Codec ID/Info : UTF-8 Plain Text
Title : SRT
Language : English
Default : No
Forced : No

Text #3
ID : 11
Format : PGS
Muxing mode : zlib
Codec ID : S_HDMV/PGS
Codec ID/Info : The same subtitle format used on BDs/HD-DVDs
Title : PGS
Language : English
Default : No
Forced : No

Menu
00:00:00.000 : en:00:00:00.000
00:01:35.095 : en:00:01:35.095
00:03:37.426 : en:00:03:37.426
00:07:00.837 : en:00:07:00.837
00:09:51.591 : en:00:09:51.591
00:11:35.570 : en:00:11:35.570
00:13:20.091 : en:00:13:20.091
00:15:37.770 : en:00:15:37.770
00:18:45.499 : en:00:18:45.499
00:21:42.801 : en:00:21:42.801
00:23:38.667 : en:00:23:38.667
00:27:23.559 : en:00:27:23.559
00:31:07.866 : en:00:31:07.866
00:35:55.528 : en:00:35:55.528
00:40:11.200 : en:00:40:11.200
00:42:45.021 : en:00:42:45.021
00:45:10.666 : en:00:45:10.666
00:49:35.347 : en:00:49:35.347
00:52:05.664 : en:00:52:05.664
00:55:05.969 : en:00:55:05.969
00:58:24.418 : en:00:58:24.418
01:02:18.693 : en:01:02:18.693
01:05:19.165 : en:01:05:19.165
01:10:31.352 : en:01:10:31.352
01:13:35.620 : en:01:13:35.620
01:16:48.521 : en:01:16:48.521
01:22:58.932 : en:01:22:58.932
01:25:53.940 : en:01:25:53.940
01:29:53.263 : en:01:29:53.263
01:32:18.241 : en:01:32:18.241
01:34:52.645 : en:01:34:52.645
01:38:04.003 : en:01:38:04.003
01:40:35.780 : en:01:40:35.780
01:42:40.446 : en:01:42:40.446
01:44:20.754 : en:01:44:20.754
01:49:26.143 : en:01:49:26.143
01:54:40.499 : en:01:54:40.499
01:57:28.166 : en:01:57:28.166
02:01:14.517 : en:02:01:14.517
02:03:48.296 : en:02:03:48.296
pic pic pic pic pic

Этот торрент недоступен для скачивания без регистрации, однако доступен по публичной magnet-ссылке (источники с публичных трекеров). Перед использованием ссылки прочтите, пожалуйста Пользовательское соглашение, а также как можно дольше оставайтесь на раздаче! Для того, чтобы скачать сам торрент-файл (который видит больше источников), а также для того, чтобы поблагодарить релизера, вам необходимо зарегистрироваться. Если регистрироваться лень - вы можете также попробовать скачать релиз по нашим партнерским ссылкам ниже. Кроме того, зарегистрированным пользователям не показывается всплывающая реклама при скачивании.

[underverse.su].t36971.torrent
Трекер: Зарегистрирован   [ 06.03.2014 21:37 ]  

Статус: проверено (by garry at 07.03.2014 03:53)
Поблагодарили: пока никто не поблагодарил...
Тип торрента: публичный - доступные источники с открытых трекеров: 
Размер: 40,06 GB (занимает 9,15 DVDR, для записи нужно 10 болванок DVDR/RW)
 
 

Яндекс.Метрика powered by Sphinx


В Н И М А Н И Е
Сайт не распространяет и не хранит электронные версии произведений, а лишь бесплатно и без коммерческой выгоды (не требуя взамен платы,
SMS и т.д.) предоставляет доступ к создаваемому пользователями каталогу ссылок на торрент-файлы, которые содержат только списки хеш-сумм.
Убедительная просьба с жалобами обращаться напрямую к пользователю, разместившему торрент файл.

Вверх