Loading...
Error

Одинокий волк МакКуэйд / Lone Wolf McQuade (Стив Карвер / Steve Carver) [1983 г., боевик, триллер, драма, криминал, BDRemux 1080p] MVOx4 + AVOx6 (Сербин, Гаврилов, Горчаков, Володарский, Товбин, Михалев) + Sub (Eng)

Статистика раздачи
Размер:  19,83 GB   |    Зарегистрирован:  4 года 3 месяца   |    Скачан:  7 раз

Полного источника не было: 2 месяца 15 дней

Сидов:  0  |  0 KB/s  ]   Личеров:  0  |  0 KB/s  ]

* - сиды/пиры с внешних источников

   
 
Автор Сообщение

uzi2009 Пол:Муж

13-Мар-2014 19:55

Одинокий волк МакКуэйд / Lone Wolf McQuade

Год выпуска: 1983
Страна: США
Жанр: боевик, триллер, драма, криминал
Продолжительность: 01:47:11
Перевод: Профессиональный (многоголосый, закадровый) x4
Перевод: Авторский (одноголосый, закадровый) x6
Субтитры: английские

Режиссер: Стив Карвер / Steve Carver

В ролях: Чак Норрис, Дэвид Кэрредин, Барбара Каррера, Леон Айзек Кеннеди, Роберт Белтран, Л. К. Джонс, Дэна Киммелл, Р.Г. Армстронг, Хорхе Сервера мл., Шэрон Фаррелл

Описание: «Крутого» рейнджера Маккуэйда бандиты ненавидят за беспощадность, а шеф полиции за его стиль работы - «волка-одиночки». И, в конце концов, навязывает ему нового напарника - молодого мексиканца. Им противостоит банда контрабандистов оружием во главе неким Роули - чемпионом по карате. В довершение всего, Маккуэйд влюбляется в женщину Роули Лолу. Бандиты похищают дочь рейнджера...



Доп. информация:

Качество: BDRemux (thx TTG)
Формат: MKV
Видео: MPEG-4 AVC Video 21995 kbps 1080p / 23.976 fps / 16:9 / High Profile 4.1
Аудио: Dolby Digital Audio Russian 2.0 / 48 kHz / 192 kbps | НТВ+
Аудио: Dolby Digital Audio Russian 2.0 / 48 kHz / 192 kbps | НТВ
Аудио: Dolby Digital Audio Russian 2.0 / 48 kHz / 192 kbps | 5 канал
Аудио: Dolby Digital Audio Russian 2.0 / 48 kHz / 192 kbps | РТР
Аудио: Dolby Digital Audio Russian 2.0 / 48 kHz / 192 kbps | Гаврилов
Аудио: Dolby Digital Audio Russian 2.0 / 48 kHz / 192 kbps | Горчаков
Аудио: Dolby Digital Audio Russian 2.0 / 48 kHz / 192 kbps | Володарский
Аудио: Dolby Digital Audio Russian 2.0 / 48 kHz / 192 kbps | Товбин
Аудио: DTS-HD Master Audio Russian 1.0 / 48 kHz / 838 kbps / 24-bit (DTS Core: 1.0 / 48 kHz / 384 kbps / 24-bit) | Сербин
Аудио: DTS-HD Master Audio Russian 1.0 / 48 kHz / 1098 kbps / 24-bit (DTS Core: 1.0 / 48 kHz / 768 kbps / 24-bit) | Михалев
Аудио: DTS-HD Master Audio English 1.0 / 48 kHz / 1090 kbps / 24-bit (DTS Core: 1.0 / 48 kHz / 768 kbps / 24-bit)
Субтитры: English (SRT), English (PGS)

Цитата:

Дорожки №9, 10 получены наложением чистого голоса на декодированный канал DTS-HD.MA
За выкуп перевода Юрия Сербина большое спасибо: ochkarik1, tide, Loki1982, Dervish, lawyers и пользователям форума e180 - Kastro, SilverBeast, uchitel538, carnivale, vik19662007, DB73
За многоголосые озвучки спасибо jurasiom, RRbuLLDOzer, KCIOIlIA, Lorenzo94. За Гаврилова zargo
За подготовку Михалева спасибо Прагматик
В дорожке НТВ последние 5 минут заменены с НТВ+


General
Unique ID : 176011050820701033315591018325586033444 (0x846A7ECE11B190B08EF893914FF93B24)
Complete name : G:\bluray\Lone.Wolf.McQuade.1983.1080p.Bluray.AVC.Remux.mkv
Format : Matroska
Format version : Version 2
File size : 19.8 GiB
Duration : 1h 47mn
Overall bit rate mode : Variable
Overall bit rate : 26.5 Mbps
Movie name : Lone.Wolf.McQuade.1983.1080p.Bluray.AVC.Remux
Encoded date : UTC 2012-08-18 20:18:44
Writing application : mkvmerge v4.9.1 ('Ich will') сборка от Jul 11 2011 23:53:15
Writing library : libebml v1.2.1 + libmatroska v1.1.1

Video
ID : 1
Format : AVC
Format/Info : Advanced Video Codec
Format profile : High@L4.1
Format settings, CABAC : Yes
Format settings, ReFrames : 4 frames
Codec ID : V_MPEG4/ISO/AVC
Duration : 1h 47mn
Bit rate mode : Variable
Bit rate : 22.2 Mbps
Maximum bit rate : 36.0 Mbps
Width : 1 920 pixels
Height : 1 080 pixels
Display aspect ratio : 16:9
Frame rate : 23.976 fps
Color space : YUV
Chroma subsampling : 4:2:0
Bit depth : 8 bits
Scan type : Progressive
Bits/(Pixel*Frame) : 0.446
Stream size : 16.6 GiB (84%)
Title : hdclub
Default : Yes
Forced : No

Audio #1
ID : 2
Format : AC-3
Format/Info : Audio Coding 3
Mode extension : CM (complete main)
Format settings, Endianness : Big
Codec ID : A_AC3
Duration : 1h 47mn
Bit rate mode : Constant
Bit rate : 192 Kbps
Channel(s) : 2 channels
Channel positions : Front: L R
Sampling rate : 48.0 KHz
Bit depth : 16 bits
Compression mode : Lossy
Stream size : 147 MiB (1%)
Title : НТВ+
Language : Russian
Default : Yes
Forced : No

Audio #2
ID : 3
Format : AC-3
Format/Info : Audio Coding 3
Mode extension : CM (complete main)
Format settings, Endianness : Big
Codec ID : A_AC3
Duration : 1h 47mn
Bit rate mode : Constant
Bit rate : 192 Kbps
Channel(s) : 2 channels
Channel positions : Front: L R
Sampling rate : 48.0 KHz
Bit depth : 16 bits
Compression mode : Lossy
Stream size : 147 MiB (1%)
Title : НТВ
Language : Russian
Default : No
Forced : No

Audio #3
ID : 4
Format : AC-3
Format/Info : Audio Coding 3
Mode extension : CM (complete main)
Format settings, Endianness : Big
Codec ID : A_AC3
Duration : 1h 47mn
Bit rate mode : Constant
Bit rate : 192 Kbps
Channel(s) : 2 channels
Channel positions : Front: L R
Sampling rate : 48.0 KHz
Bit depth : 16 bits
Compression mode : Lossy
Stream size : 147 MiB (1%)
Title : Петербург Пятый канал
Language : Russian
Default : No
Forced : No

Audio #4
ID : 5
Format : AC-3
Format/Info : Audio Coding 3
Mode extension : CM (complete main)
Format settings, Endianness : Big
Codec ID : A_AC3
Duration : 1h 47mn
Bit rate mode : Constant
Bit rate : 192 Kbps
Channel(s) : 2 channels
Channel positions : Front: L R
Sampling rate : 48.0 KHz
Bit depth : 16 bits
Compression mode : Lossy
Stream size : 147 MiB (1%)
Title : ВГТРК
Language : Russian
Default : No
Forced : No

Audio #5
ID : 6
Format : AC-3
Format/Info : Audio Coding 3
Mode extension : CM (complete main)
Format settings, Endianness : Big
Codec ID : A_AC3
Duration : 1h 47mn
Bit rate mode : Constant
Bit rate : 192 Kbps
Channel(s) : 2 channels
Channel positions : Front: L R
Sampling rate : 48.0 KHz
Bit depth : 16 bits
Compression mode : Lossy
Stream size : 147 MiB (1%)
Title : Андрей Гаврилов
Language : Russian
Default : No
Forced : No

Audio #6
ID : 7
Format : AC-3
Format/Info : Audio Coding 3
Mode extension : CM (complete main)
Format settings, Endianness : Big
Codec ID : A_AC3
Duration : 1h 47mn
Bit rate mode : Constant
Bit rate : 192 Kbps
Channel(s) : 2 channels
Channel positions : Front: L R
Sampling rate : 48.0 KHz
Bit depth : 16 bits
Compression mode : Lossy
Stream size : 147 MiB (1%)
Title : Василий Горчаков
Language : Russian
Default : No
Forced : No

Audio #7
ID : 8
Format : AC-3
Format/Info : Audio Coding 3
Mode extension : CM (complete main)
Format settings, Endianness : Big
Codec ID : A_AC3
Duration : 1h 47mn
Bit rate mode : Constant
Bit rate : 192 Kbps
Channel(s) : 2 channels
Channel positions : Front: L R
Sampling rate : 48.0 KHz
Bit depth : 16 bits
Compression mode : Lossy
Stream size : 147 MiB (1%)
Title : Леонид Володарский
Language : Russian
Default : No
Forced : No

Audio #8
ID : 9
Format : AC-3
Format/Info : Audio Coding 3
Mode extension : CM (complete main)
Format settings, Endianness : Big
Codec ID : A_AC3
Duration : 1h 47mn
Bit rate mode : Constant
Bit rate : 192 Kbps
Channel(s) : 2 channels
Channel positions : Front: L R
Sampling rate : 48.0 KHz
Bit depth : 16 bits
Compression mode : Lossy
Stream size : 147 MiB (1%)
Title : Юрий Толбин
Language : Russian
Default : No
Forced : No

Audio #9
ID : 10
Format : DTS
Format/Info : Digital Theater Systems
Format profile : MA / Core
Codec ID : A_DTS
Duration : 1h 47mn
Bit rate mode : Variable
Bit rate : 663 Kbps / 384 Kbps
Channel(s) : 1 channel
Channel positions : Front: C
Sampling rate : 48.0 KHz
Bit depth : 24 bits
Compression mode : Lossless / Lossy
Title : Юрий Сербин
Language : Russian
Default : No
Forced : No

Audio #10
ID : 11
Format : DTS
Format/Info : Digital Theater Systems
Format profile : MA / Core
Codec ID : A_DTS
Duration : 1h 47mn
Bit rate mode : Variable
Bit rate : 800 Kbps / 755 Kbps
Channel(s) : 1 channel
Channel positions : Front: C
Sampling rate : 48.0 KHz
Bit depth : 24 bits
Compression mode : Lossless / Lossy
Title : Алексей Михалев
Language : Russian
Default : No
Forced : No

Audio #11
ID : 12
Format : DTS
Format/Info : Digital Theater Systems
Format profile : MA / Core
Codec ID : A_DTS
Duration : 1h 47mn
Bit rate mode : Variable
Bit rate : 800 Kbps / 755 Kbps
Channel(s) : 1 channel
Channel positions : Front: C
Sampling rate : 48.0 KHz
Bit depth : 24 bits
Compression mode : Lossless / Lossy
Language : English
Default : No
Forced : No

Text #1
ID : 13
Format : UTF-8
Codec ID : S_TEXT/UTF8
Codec ID/Info : UTF-8 Plain Text
Title : SRT
Language : English
Default : No
Forced : No

Text #2
ID : 14
Format : PGS
Muxing mode : zlib
Codec ID : S_HDMV/PGS
Codec ID/Info : The same subtitle format used on BDs/HD-DVDs
Title : PGS
Language : English
Default : No
Forced : No

Menu
00:00:00.000 : en:00:00:00.000
00:16:54.764 : en:00:16:54.764
00:24:58.455 : en:00:24:58.455
00:34:36.491 : en:00:34:36.491
00:42:47.648 : en:00:42:47.648
00:55:15.145 : en:00:55:15.145
01:08:32.233 : en:01:08:32.233
01:22:11.635 : en:01:22:11.635
01:30:42.854 : en:01:30:42.854
01:34:54.898 : en:01:34:54.898
01:44:28.345 : en:01:44:28.345
pic pic pic pic pic

Этот торрент недоступен для скачивания без регистрации, однако доступен по публичной magnet-ссылке (источники с публичных трекеров). Перед использованием ссылки прочтите, пожалуйста Пользовательское соглашение, а также как можно дольше оставайтесь на раздаче! Для того, чтобы скачать сам торрент-файл (который видит больше источников), а также для того, чтобы поблагодарить релизера, вам необходимо зарегистрироваться. Если регистрироваться лень - вы можете также попробовать скачать релиз по нашим партнерским ссылкам ниже. Кроме того, зарегистрированным пользователям не показывается всплывающая реклама при скачивании.

[underverse.su].t37195.torrent
Трекер: Зарегистрирован   [ 13.03.2014 19:55 ]  

Статус: проверено (by 90ytr90 at 17.03.2014 14:52)
Поблагодарили: пока никто не поблагодарил...
Тип торрента: публичный - доступные источники с открытых трекеров: 
Размер: 19,83 GB (занимает 4,53 DVDR, для записи нужно 5 болванок DVDR/RW)
 
 
Похожие темы
Форум Тема Автор Торрент Отв. Посл. сооб.
Зарубежное кино [DVDRip, Low-Res HDRip, и т.д.] Одинокий волк МакКуэйд / Lone Wolf McQuade (Стив Карвер / Steve Carver) [1983 г., боевик, триллер, драма, криминал, BDRip] DVO НТВ+ Паукан
3 | 0

0 | 253

3

10.02.2018 20:08

Зарубежное кино [HDDVDRip / BDRip / WEB-DL / HDTV 1080/720р] Одинокий волк МакКуэйд / Lone Wolf McQuade (Стив Карвер) [1983 г., Боевик, триллер, драма, криминал, BDRip 1080p] MVO + AVO техно1
1 | 0

0 | 1466

8

09.11.2012 21:51

Архив (Сериалы) Одинокий волк / Серии: 1-24 (24) (Григорий Любомиров, Александр Кулямин) [2012, Криминал, боевик, детектив, SATRip] nemos
0 | 0

5 | 2139

17

31.01.2018 17:03

ginio Пол:Муж

24-Окт-2015 10:50

Лучше бы вы выложили полноценный Blu-ray !

Яндекс.Метрика powered by Sphinx


В Н И М А Н И Е
Сайт не распространяет и не хранит электронные версии произведений, а лишь бесплатно и без коммерческой выгоды (не требуя взамен платы,
SMS и т.д.) предоставляет доступ к создаваемому пользователями каталогу ссылок на торрент-файлы, которые содержат только списки хеш-сумм.
Убедительная просьба с жалобами обращаться напрямую к пользователю, разместившему торрент файл.

Вверх