Loading...
Error

(Darkwave, Synth-Gothic) Blutengel - Black Symphonies (An Orchestral Journey) (2014) [FLAC (Image+.CUE), Lossless]

Статистика раздачи
Размер:  368 MB   |    Зарегистрирован:  4 года 2 месяца   |    Скачан:  6 раз

Полного источника не было: 3 месяца 13 дней

Сидов:  0  |  0 KB/s  ]   Личеров:  0  |  0 KB/s  ]

* - сиды/пиры с внешних источников

   
 
Автор Сообщение

Бишеп Пол:Муж

01-Апр-2014 05:20

Blutengel - Black Symphonies (An Orchestral Journey)

Жанр: Darkwave, Synth-Gothic
Год выпуска: 2014
Производитель диска: Out Of Line - OUT 662 | 663
Аудиокодек: FLAC
Тип рипа: Image+.CUE
Битрейт аудио: Lossless
Продолжительность: 00:57:31
Треклист:
01. Legend / Nachtbringer
02. Krieger
03. Soultaker
04. Uber Den Horizont
05. Deine Welt
06. Behind The Mirror
07. Kinder Dieser Stadt
08. Reich Mir Die Hand
09. Die Zeit
10. Seelenschmerz
11. You Walk Away
12. Monument

Exact Audio Copy V1.0 beta 3 from 29. August 2011

EAC extraction logfile from 21. March 2014, 20:09

Blutengel / Black Symphonies

Used drive : MATSHITABD-CMB UJ242AS Adapter: 0 ID: 1

Read mode : Secure
Utilize accurate stream : Yes
Defeat audio cache : Yes
Make use of C2 pointers : No

Read offset correction : 103
Overread into Lead-In and Lead-Out : No
Fill up missing offset samples with silence : Yes
Delete leading and trailing silent blocks : No
Null samples used in CRC calculations : Yes
Used interface : Installed external ASPI interface

Used output format : User Defined Encoder
Selected bitrate : 1024 kBit/s
Quality : High
Add ID3 tag : Yes
Command line compressor : C:\Program Files (x86)\Exact Audio Copy\Flac\flac.exe
Additional command line options : -V -8 -T "Date=%year%" -T "Genre=%genre%" %source%

TOC of the extracted CD

Track | Start | Length | Start sector | End sector
---------------------------------------------------------
1 | 0:00.00 | 5:48.66 | 0 | 26165
2 | 5:48.66 | 4:04.27 | 26166 | 44492
3 | 9:53.18 | 6:08.19 | 44493 | 72111
4 | 16:01.37 | 4:17.13 | 72112 | 91399
5 | 20:18.50 | 4:14.40 | 91400 | 110489
6 | 24:33.15 | 6:14.51 | 110490 | 138590
7 | 30:47.66 | 3:29.29 | 138591 | 154294
8 | 34:17.20 | 3:55.23 | 154295 | 171942
9 | 38:12.43 | 5:07.41 | 171943 | 195008
10 | 43:20.09 | 5:55.37 | 195009 | 221670
11 | 49:15.46 | 4:10.29 | 221671 | 240449
12 | 53:26.00 | 4:04.65 | 240450 | 258814

Range status and errors

Selected range

Filename C:\EACrip\Blutengel - Black Symphonies.wav

Peak level 95.4 %
Extraction speed 4.2 X
Range quality 100.0 %
Test CRC 6B24765A
Copy CRC 6B24765A
Copy OK

No errors occurred

AccurateRip summary
Track 1 not present in database
Track 2 not present in database
Track 3 not present in database
Track 4 not present in database
Track 5 not present in database
Track 6 not present in database
Track 7 not present in database
Track 8 not present in database
Track 9 not present in database
Track 10 not present in database
Track 11 not present in database
Track 12 not present in database
None of the tracks are present in the AccurateRip database

End of status report

==== Log checksum 900BB9BAE78713CF76E644A18790D21BB5038D5012FD89B6CF471321FC04C8CA ====

Этот торрент недоступен для скачивания без регистрации, однако доступен по публичной magnet-ссылке (источники с публичных трекеров). Перед использованием ссылки прочтите, пожалуйста Пользовательское соглашение, а также как можно дольше оставайтесь на раздаче! Для того, чтобы скачать сам торрент-файл (который видит больше источников), а также для того, чтобы поблагодарить релизера, вам необходимо зарегистрироваться. Если регистрироваться лень - вы можете также попробовать скачать релиз по нашим партнерским ссылкам ниже. Кроме того, зарегистрированным пользователям не показывается всплывающая реклама при скачивании.

[underverse.su].t37747.torrent
Трекер: Зарегистрирован   [ 01.04.2014 05:20 ]  

Статус: проверено (by Бишеп at 01.04.2014 05:20)
Поблагодарили: 1 человек
Тип торрента: публичный - доступные источники с открытых трекеров: 
Размер: 368 MB (занимает 0,08 DVDR, для записи нужно 1 болванка DVDR/RW)
 
 
Похожие темы
Форум Тема Автор Торрент Отв. Посл. сооб.
EBM, Industrial, Dark Electro, Darkwave, Gothic Synth (Darkwave, Post Punk, Synthpop) Hexheart - A Thousand Times (2017) [MP3, 320 kbps CBR] Darkferse
2 | 0

0 | 410

2

28.05.2017 08:15

EBM, Industrial, Dark Electro, Darkwave, Gothic Synth (Darkwave, EBM, Gothic Industrial) Samtaugen - ID (2014) [MP3, 320 kbps] ANDRAKO
0 | 0

0 | 582

3

14.12.2016 19:49

EBM, Industrial, Dark Electro, Darkwave, Gothic Synth (Darkwave, EBM) Sara Noxx - Entre Quatre Yeuxx (2015) [MP3, 320 kbps] ANDRAKO
0 | 0

0 | 585

3

11.12.2016 10:18

EBM, Industrial, Dark Electro, Darkwave, Gothic Synth (Darkwave, Industrial, Post-Punk) Bestial Mouths - Heartless (2016) [MP3, 320 kbps CBR] Darkferse
2 | 0

0 | 458

1

16.03.2017 11:34

EBM, Industrial, Dark Electro, Darkwave, Gothic Synth (Darkwave, Coldwave, Gothic Rock) In My Despair - Emptiness In My Head (EP) (2017) [MP3, 320 kbps CBR] Darkferse
2 | 0

0 | 453

4

25.04.2017 21:59

EBM, Industrial, Dark Electro, Darkwave, Gothic Synth (Darkwave, Gothic, Industrial) Neutrale Erde - Quasar (2017) [MP3, 320 kbps CBR] Darkferse
2 | 0

0 | 483

3

25.04.2017 22:05

EBM, Industrial, Dark Electro, Darkwave, Gothic Synth (Darkwave, EBM, Gothic Synth) ManOK - День Гнева (2017) [MP3, 320 kbps CBR] Darkferse
5 | 1

0 | 536

2

26.04.2017 21:00

EBM, Industrial, Dark Electro, Darkwave, Gothic Synth (Darkwave, Ethereal Wave, Dark Ambient) Aythis - The Illusion and The Twin (2016) [MP3, 320 kbps CBR] Darkferse
1 | 0

0 | 512

2

10.06.2017 09:40

EBM, Industrial, Dark Electro, Darkwave, Gothic Synth (Darkwave, EBM, Industrial) Third Realm - The Suffering Angel (2017) [MP3, 320 kbps CBR] Darkferse
6 | 0

0 | 421

3

07.07.2017 19:19

EBM, Industrial, Dark Electro, Darkwave, Gothic Synth (Darkwave, EBM, Industrial) Schwarzblut - Discography (2008-2017) [MP3, 320 kbps CBR] Darkferse
9 | 4

0 | 272

3

13.12.2017 15:10


Яндекс.Метрика powered by Sphinx


В Н И М А Н И Е
Сайт не распространяет и не хранит электронные версии произведений, а лишь бесплатно и без коммерческой выгоды (не требуя взамен платы,
SMS и т.д.) предоставляет доступ к создаваемому пользователями каталогу ссылок на торрент-файлы, которые содержат только списки хеш-сумм.
Убедительная просьба с жалобами обращаться напрямую к пользователю, разместившему торрент файл.

Вверх