Loading...
Error

(Alternative Rock) Давид Тухманов. Группа "Москва" (Николай Носков) - НЛО (2007) [FLAC (Image+.CUE) Lossless]

Статистика раздачи
Размер:  287 MB   |    Зарегистрирован:  4 года 2 месяца   |    Скачан:  4 раза

Полного источника не было: 1 месяц 6 дней

Сидов:  0  |  0 KB/s  ]   Личеров:  0  |  0 KB/s  ]

* - сиды/пиры с внешних источников

   
 
Автор Сообщение

Бишеп Пол:Муж

05-Май-2014 05:42

Давид Тухманов. Группа "Москва" - НЛО

Жанр: Alternative Rock
Год выпуска: 2007
Производитель диска: Bomba Music BoMB 033-321
Аудиокодек: FLAC
Тип рипа: Image+.CUE
Битрейт аудио: Lossless
Продолжительность: 00:46:55
Треклист:
01. НЛО
02. Игра в любовь
03. Миллион лет до нашй эры
04. Дождь
05. Ну и дела!
06. Волшебная комната
07. Поединок
Bonus Tracks:
08. XXIII век
09. Ночь

Exact Audio Copy V0.99 prebeta 5 from 4. May 2009

Отчёт EAC об извлечении, выполненном 21. ноября 2010, 13:20

Давид Тухманов и группа "Москва" / НЛО

Дисковод: ATAPI DVD A DH16AAS Adapter: 2 ID: 0

Режим чтения : Достоверность
Использование точного потока : Да
Отключение кэша аудио : Да
Использование указателей C2 : Нет

Коррекция смещения при чтении : 6
Способность читать области Lead-in и Lead-out : Нет
Заполнение пропущенных сэмплов тишиной : Да
Удаление блоков с тишиной в начале и конце : Нет
При вычислениях CRC использовались нулевые сэмплы : Да
Интерфейс : Встроенный Win32-интерфейс для Win NT/2000

Выходной формат : Пользовательский кодировщик
Выбранный битрейт : 768 kBit/s
Качество : Высокий
Добавление ID3-тэга : Нет
Утилита сжатия : C:\Program Files\Exact Audio Copy\FLAC\FLAC.EXE
Дополнительные параметры : -6 -V -T "ARTIST=%a" -T "TITLE=%t" -T "ALBUM=%g" -T "DATE=%y" -T "TRACKNUMBER=%n" -T "GENRE=%m" -T "COMMENT=%e" %s -o %d

TOC извлечённого CD

Трек | Старт | Длительность | Начальный сектор | Конечный сектор
---------------------------------------------------------------------
1 | 0:00.00 | 5:28.20 | 0 | 24619
2 | 5:28.20 | 6:37.07 | 24620 | 54401
3 | 12:05.27 | 5:58.10 | 54402 | 81261
4 | 18:03.37 | 5:30.61 | 81262 | 106072
5 | 23:34.23 | 4:46.17 | 106073 | 127539
6 | 28:20.40 | 4:28.58 | 127540 | 147697
7 | 32:49.23 | 5:32.63 | 147698 | 172660
8 | 38:22.11 | 4:14.48 | 172661 | 191758
9 | 42:36.59 | 4:18.37 | 191759 | 211145

Характеристики диапазона извлечения и сообщения об ошибках

Выбранный диапазон

Имя файла C:\Users\user\Desktop\Давид Тухманов (Группа МОСКВА) - НЛО (1982)\Давид Тухманов и группа Москва - НЛО.wav

Пиковый уровень 97.7 %
Качество диапазона 99.9 %
CRC теста E54A44D6
CRC копии E54A44D6
Копирование... OK

Ошибок не произошло

AccurateRip: сводка
Трек 1 точное извлечение (доверие 1) [EBA10882]
Трек 2 точное извлечение (доверие 1) [C99B081B]
Трек 3 точное извлечение (доверие 1) [FFF5283A]
Трек 4 точное извлечение (доверие 1) [D8315886]
Трек 5 точное извлечение (доверие 1) [B01D8293]
Трек 6 точное извлечение (доверие 1) [E6A453C2]
Трек 7 точное извлечение (доверие 1) [4750CD53]
Трек 8 точное извлечение (доверие 1) [6C42D11E]
Трек 9 точное извлечение (доверие 1) [625251CC]
Все треки извлечены точно

Конец отчёта

Этот торрент недоступен для скачивания без регистрации, однако доступен по публичной magnet-ссылке (источники с публичных трекеров). Перед использованием ссылки прочтите, пожалуйста Пользовательское соглашение, а также как можно дольше оставайтесь на раздаче! Для того, чтобы скачать сам торрент-файл (который видит больше источников), а также для того, чтобы поблагодарить релизера, вам необходимо зарегистрироваться. Если регистрироваться лень - вы можете также попробовать скачать релиз по нашим партнерским ссылкам ниже. Кроме того, зарегистрированным пользователям не показывается всплывающая реклама при скачивании.

[underverse.su].t39746.torrent
Трекер: Зарегистрирован   [ 05.05.2014 05:42 ]  

Статус: проверено (by Бишеп at 05.05.2014 05:42)
Поблагодарили: 1 человек
Тип торрента: публичный - доступные источники с открытых трекеров: 
Размер: 287 MB (занимает 0,06 DVDR, для записи нужно 1 болванка DVDR/RW)
 
 
Похожие темы
Форум Тема Автор Торрент Отв. Посл. сооб.
Зарубежная Pop Музыка (Alternative Pop, Neo Soul, Indie) Amanda Jenssen - Sanger fran on (2015) [MP3, 320 kbps] 90ytr90
1 | 1

0 | 1137

3

23.03.2015 19:02

Зарубежная Pop Музыка (Alternative, Indie) Anna of the North - Lovers (2017) [MP3, 320 kbps CBR] Darkferse
5 | 0

0 | 744

4

13.09.2017 08:47

Зарубежная Pop Музыка (Alternative, Pop, Soul) Plan B - Heaven Before All Hell Breaks Loose (2018) [MP3, 320 kbps CBR] 90ytr90
31 | 1

0 | 225

3

03.06.2018 05:52

Зарубежный Hard, Progressive, Soft, Melodic, AOR, Folk, Classic Rock (Alternative Rock / Progressive Rock) Muse - The 2nd Law (2012) [MP3, 320 kbps] Jimmy
0 | 0

0 | 1353

13

27.09.2012 04:30

Зарубежный Black, Death, Heavy, Thrash, Power, Folk, Gothic Metal (Alternative Metal) This Tragic Day - This Tragic Day (2012) [MP3, 320 kbps] NiiggazCPT
1 | 0

0 | 1539

4

28.10.2012 07:21

Зарубежный Punk, Hardcore, Grunge, Alternative (Alternative) Green Day - Greatest Hits: God's Favorite Band (2017) [iTunes AAC M4A, 256 kbps VBR] Web garry
2 | 0

5 | 3860

1

04.02.2010 17:52

Зарубежный Punk, Hardcore, Grunge, Alternative (Alternative) Red Hot Chili Peppers - Greatest Hits (2003) [iTunes AAC M4A, 256 kbps VBR] Web garry
3 | 5

0 | 2125

1

02.06.2009 18:51

Зарубежный Punk, Hardcore, Grunge, Alternative (Alternative) The Killers - Discography (2004-2013) [iTunes AAC M4A, 256 kbps VBR] Web garry
5 | 2

0 | 6110

4

20.06.2009 12:07

Зарубежный Punk, Hardcore, Grunge, Alternative (Alternative, Pop-Punk, Female Vocal) We Are the In Crowd - Weird Kids [Deluxe Edition] (2014) [MP3, 320 kbps] Jimmy
3 | 0

0 | 1183

3

23.04.2014 15:58

Зарубежный Punk, Hardcore, Grunge, Alternative (Alternative, Pop Punk, Emo) Fireworks - (Oh), Common Life (2014) [MP3, 320 kbps] Jimmy
1 | 0

0 | 957

4

23.04.2014 15:55


Яндекс.Метрика powered by Sphinx


В Н И М А Н И Е
Сайт не распространяет и не хранит электронные версии произведений, а лишь бесплатно и без коммерческой выгоды (не требуя взамен платы,
SMS и т.д.) предоставляет доступ к создаваемому пользователями каталогу ссылок на торрент-файлы, которые содержат только списки хеш-сумм.
Убедительная просьба с жалобами обращаться напрямую к пользователю, разместившему торрент файл.

Вверх