Loading...
Error

Пингвины из Мадагаскара / The Penguins of Madagascar / Сезон: 1 / Серии: 1 - 26 из 26 / Сезон: 2 / Серии: 1 - 26 из 26 / Сезон: 3 / Серии: 1 - 23 из 26 (Брэт Хааланд / Bret Haaland) [2008-2011, Приключение, Комедия, HDTV 1080] Dub + Eng

Статистика раздачи
Размер:  63,91 GB   |    Зарегистрирован:  4 года 1 месяц   |    Скачан:  3 раза

Полного источника не было: 24 дня

Сидов:  0  |  0 KB/s  ]   Личеров:  0  |  0 KB/s  ]

* - сиды/пиры с внешних источников

   
 
Автор Сообщение

uzi2009 Пол:Муж

06-Май-2014 15:21

Пингвины из Мадагаскара / The Penguins of Madagascar

Страна: США
Жанр: Приключение , Комедия
Продолжительность: 00:21:00
Год выпуска: 2008-2012
Перевод: Профессиональный (дублированный)
Русские субтитры: нет

Режиссёр: Брэт Хааланд / Bret Haaland

Описание: Для большинства людей Шкипер, Ковальский, Рико и Рядовой — всего лишь четыре симпатичных пингвина из Центрального зоопарка Нью-Йорка. Еще бы, ведь именно это пингвины постарались им внушить! Зачем? Да затем что эти безобидные с виду пингвины на самом деле — элитный отряд специального назначения с непревзойденными боевыми навыками и секретным штабом. Их миссия? Следить за порядком в зоопарке. Их главный противник? Несносный сосед - король Джулиан. Этот самопровозглашенный "Король лемуров" и заядлый тусовщик совсем недавно появился в зоопарке, но уже успел натворить дел и даже не думает угомониться…
1 Сезон
S 01 Ep 01 An Elephant Never Forgets - Otter Things Have Happened
S 01 Ep 02 Launchtime - Haunted Habitat
S 01 Ep 03 Tangled in the Web - Crown Fools
S 01 Ep 04 Operation Plush and Cover Happy - King Julien Day!
S 01 Ep 05 Paternal Egg-Stinct - Assault and Batteries
S 01 Ep 06 What Goes Around - Mask of the Raccoon
S 01 Ep 07 Dr. Blowhole's Revenge Part I , II
S 01 Ep 08 Out of the Groove - Jungle Law
S 01 Ep 09 Command Crisis - Truth Ache
S 01 Ep 10 All King, No Kingdom - Untouchable
S 01 Ep 11 I Was a Penguin Zombie - Sting Operation
S 01 Ep 12 Jiggles - Zoo Tube
S 01 Ep 13 Snakehead! - The Falcon and the Snow Job
S 01 Ep 14 Popcorn Panic - Gone in a Flash
S 01 Ep 15 Mort Unbound - Roomies
S 01 Ep 16 Roger Dodger - Lemur See, Lemur Do
S 01 Ep 17 Otter Gone Wild - Cat's Cradle
S 01 Ep 18 Skorca! - Tagged
S 01 Ep 19 Misfortune Cookie - Monkey Love
S 01 Ep 20 Penguiner Takes All - Two Feet High and Rising
S 01 Ep 21 Little Zoo Coupe - All Choked Up
S 01 Ep 22 The Hidden - Kingdom Come
S 01 Ep 23 Go Fish - Miracle On Ice
S 01 Ep 24 Needle Point - Eclipsed
S 01 Ep 25 Miss Understanding - Over Phil
S 01 Ep 26 The Penguin Stays in the Picture - Huffin and Puffin
2 Сезон
S 02 Ep 01 Hello, Dollface - Fit to Print
S 02 Ep 02 Operation Cooties - Driven To Brink
S 02 Ep 03 Friend-in-a-Box - Badger Pride
S 02 Ep 04 Operation Good Deed - When the Chips are Down
S 02 Ep 05 Invention Intervention - Cradle and All
S 02 Ep 06 The All Nighter Before Christmas
S 02 Ep 07 Alienated - The Otter Woman
S 02 Ep 08 The Officer X Factor - Love Hurts
S 02 Ep 09 Cute-Astrophe - King Julien for a Day
S 02 Ep 10 Right Hand Man - Brain Drain
S 02 Ep 11 A Visit From Uncle Nigel - Maurice at Peace
S 02 Ep 12 Operation Neighbor Swap - Herring Impaired
S 02 Ep 13 Danger Wears A Cape - Operation Break-Speare
S 02 Ep 14 The Red Squirrel - It's About Time
S 02 Ep 15 Stop Bugging Me - Field Tripped
S 02 Ep 16 The Lost Treasure of the Golden Squirrel
S 02 Ep 17 Night and Dazed - The Big Squeeze
S 02 Ep 18 Can't Touch This - Hard Boiled Eggy
S 02 Ep 19 Wishful Thinking - April Fools
S 02 Ep 20 Kaboom and Kabust - The Helmet
S 02 Ep 21 Mr. Tux - Concrete Jungle Survival
S 02 Ep 22 Work Order - Hot Ice
S 02 Ep 23 Kanga Management - Rat Fink
S 02 Ep 24 Whispers and Coups - Brush with Danger
S 02 Ep 25 Rock-A-Bye Birdie - All Tied Up With a Boa
S 02 Ep 26 Gator WatchIn - The Line of Doody
3 Сезон
S 03 Ep 01 The Hoboken surprise
S 03 Ep 02 Hair Apparent - Love Takes Flightless
S 03 Ep 03 Loathe at First Sight - The Trouble With Jiggles
S 03 Ep 04 Pets Peeved - Byte-Sized
S 03 Ep 05 Arch-Enemy - The Big S.T.A.N.K.
S 03 Ep 06 The Most Dangerous Game Night - Street Smarts
S 03 Ep 07 Time Out - Our Man in Grrfurjiclestan
S 03 Ep 08 The Return of the Revenge of Dr. Blowhole Part 1
S 03 Ep 09 The Return of the Revenge of Dr. Blowhole Part 2
S 03 Ep 10 Gut Instinct - I Know Why the Caged Bird Goes Insane
S 03 Ep 11 Operation Antarctica
S 03 Ep 12 Nighty Night Ninja - Siege The Day
S 03 Ep 13 The Big Move - Endangerous Species
S 03 Ep 14 Littlefoot - Smotherly Love
S 03 Ep 15 A Kipper for Skipper - High Moltage
S 03 Ep 16 Operation Big Blue Marble
S 03 Ep 17 Feline Fervor - Action Reaction
S 03 Ep 18 Mental Hen - Thumb Drive
S 03 Ep 19 Operation Lunacorn Apocalypse
S 03 Ep 20 Antics on Ice - Showdown on Fairway 18
S 03 Ep 21 King Me - Private and the Winky Factory
S 03 Ep 22 Best Foes - Night of the Vesuvius
S 03 Ep 23 Nuts to You - The Terror of Madagascar
Релиз

Доп. информация: Выражаем благодарность Pah'OK за предоставленные серии

Качество: HDTV 1080
Формат: TS
Видео: MPEG4 Video (H264) 1920x1080 25.00fps 4 506 Kbps
Аудио: Dolby AC3 48000Hz stereo 192kbps Rus
Аудио 2: Dolby AC3 48000Hz stereo 192kbps Eng
Субтитры: отсутствуют


GeneralID : 1 (0x1)Complete name : C:\Пингвины Мадагаскара\S 02 Ep 01 Hello, Dollface - Fit to Print.tsFormat : MPEG-TSFile size : 824 MiBDuration : 22mn 22sOverall bit rate mode : VariableOverall bit rate : 5 148 KbpsMaximum Overall bit rate : 35.5 Mbps

VideoID : 4113 (0x1011)Menu ID : 1 (0x1)Format : AVCFormat/Info : Advanced Video CodecFormat profile : Main@L4.0Format settings, CABAC : YesFormat settings, ReFrames : 3 framesCodec ID : 27Duration : 22mn 22sBit rate mode : VariableBit rate : 4 506 KbpsMaximum bit rate : 40.0 MbpsWidth : 1 920 pixelsHeight : 1 080 pixelsDisplay aspect ratio : 16:9Frame rate : 25.000 fpsStandard : ComponentColor space : YUVChroma subsampling : 4:2:0Bit depth : 8 bitsScan type : InterlacedScan order : Top Field FirstBits/(Pixel*Frame) : 0.087Stream size : 721 MiB (88%)Color primaries : BT.709-5, BT.1361, IEC 61966-2-4, SMPTE RP177Transfer characteristics : BT.709-5, BT.1361Matrix coefficients : BT.709-5, BT.1361, IEC 61966-2-4 709, SMPTE RP177

Audio #1ID : 4352 (0x1100)Menu ID : 1 (0x1)Format : AC-3Format/Info : Audio Coding 3Mode extension : HI (hearing impaired)Codec ID : 129Duration : 22mn 22sBit rate mode : ConstantBit rate : 192 KbpsChannel(s) : 2 channelsChannel positions : Front: L RSampling rate : 48.0 KHzBit depth : 16 bitsCompression mode : LossyStream size : 30.7 MiB (4%)Language : Russian

Audio #2ID : 4353 (0x1101)Menu ID : 1 (0x1)Format : AC-3Format/Info : Audio Coding 3Mode extension : HI (hearing impaired)Codec ID : 129Duration : 22mn 22sBit rate mode : ConstantBit rate : 192 KbpsChannel(s) : 2 channelsChannel positions : Front: L RSampling rate : 48.0 KHzBit depth : 16 bitsCompression mode : LossyStream size : 30.7 MiB (4%)Language : English
pic pic pic

Этот торрент недоступен для скачивания без регистрации, однако доступен по публичной magnet-ссылке (источники с публичных трекеров). Перед использованием ссылки прочтите, пожалуйста Пользовательское соглашение, а также как можно дольше оставайтесь на раздаче! Для того, чтобы скачать сам торрент-файл (который видит больше источников), а также для того, чтобы поблагодарить релизера, вам необходимо зарегистрироваться. Если регистрироваться лень - вы можете также попробовать скачать релиз по нашим партнерским ссылкам ниже. Кроме того, зарегистрированным пользователям не показывается всплывающая реклама при скачивании.

[underverse.su].t39883.torrent
Трекер: Зарегистрирован   [ 06.05.2014 15:21 ]  

Статус: проверено (by Паукан at 10.05.2014 12:55)
Поблагодарили: пока никто не поблагодарил...
Тип торрента: публичный - доступные источники с открытых трекеров: 
Размер: 63,91 GB (занимает 14,6 DVDR, для записи нужно 15 болванок DVDR/RW)
 
 

Яндекс.Метрика powered by Sphinx


В Н И М А Н И Е
Сайт не распространяет и не хранит электронные версии произведений, а лишь бесплатно и без коммерческой выгоды (не требуя взамен платы,
SMS и т.д.) предоставляет доступ к создаваемому пользователями каталогу ссылок на торрент-файлы, которые содержат только списки хеш-сумм.
Убедительная просьба с жалобами обращаться напрямую к пользователю, разместившему торрент файл.

Вверх