Loading...
Error

(Darkwave, EBM, Synth-pop) Diorama - Even The Devil Doesn't Care (2013) [FLAC (Tracks+.CUE), Lossless]

Статистика раздачи
Размер:  473 MB   |    Зарегистрирован:  3 года 10 месяцев   |    Скачан:  3 раза

Полного источника не было: 6 месяцев

Сидов:  0  |  0 KB/s  ]   Личеров:  0  |  0 KB/s  ]

* - сиды/пиры с внешних источников

   
 
Автор Сообщение

Бишеп Пол:Муж

03-Авг-2014 11:21

Diorama - Even The Devil Doesn't Care

Жанр: Darkwave, EBM, Synth-pop
Год выпуска: 2013
Производитель диска: Accession Records - A133
Аудиокодек: FLAC
Тип рипа: Tracks+.CUE
Битрейт аудио: Lossless
Продолжительность: 01:08:32
Треклист:
01. Maison Du Tigre
02. Hope
03. The Scale
04. My Favourite Song
05. The Expatriate
06. Summit
07. Weiss Und Anthrazit
08. When We Meet Again In Hell
09. The Long Way Home From The Party
10. Hellogoodbye
11. My Justice For All
12. Over

Код:

X Lossless Decoder version 20130127 (142.3)

XLD extraction logfile from 2013-02-02 14:19:54 +0100

Diorama / Even The Devil Doesn't Care

Used drive : YAMAHA CRW-F1E (revision 1.0g)
Media type : Pressed CD

Ripper mode             : XLD Secure Ripper
Disable audio cache     : OK for the drive with a cache less than 1375KiB
Make use of C2 pointers : NO
Read offset correction  : 733
Max retry count         : 100
Gap status              : Analyzed, Appended

TOC of the extracted CD
     Track |   Start  |  Length  | Start sector | End sector
    ---------------------------------------------------------
        1  | 00:00:00 | 06:05:66 |         0    |    27440   
        2  | 06:05:66 | 05:04:57 |     27441    |    50297   
        3  | 11:10:48 | 05:33:45 |     50298    |    75317   
        4  | 16:44:18 | 05:35:13 |     75318    |   100455   
        5  | 22:19:31 | 04:35:04 |    100456    |   121084   
        6  | 26:54:35 | 07:19:51 |    121085    |   154060   
        7  | 34:14:11 | 05:26:18 |    154061    |   178528   
        8  | 39:40:29 | 06:35:49 |    178529    |   208202   
        9  | 46:16:03 | 05:13:57 |    208203    |   231734   
       10  | 51:29:60 | 06:01:13 |    231735    |   258822   
       11  | 57:30:73 | 05:31:33 |    258823    |   283680   
       12  | 63:02:31 | 05:30:10 |    283681    |   308440   

AccurateRip Summary
    Disc not found in AccurateRip DB.

All Tracks
    Album gain               : -8.87 dB
    Peak                     : 0.988495
    Statistics
        Read error                           : 0
        Jitter error (maybe fixed)           : 0
        Retry sector count                   : 0
        Damaged sector count                 : 0

Track 01
    Filename : /Volumes/HD 2/Diorama -2013 - Even The Devil Doesn't Care (FLAC)/01 - Diorama - 2013 - Maison Du Tigre.flac
    Pre-gap length : 00:02:00

    Track gain               : -8.55 dB
    Peak                     : 0.966003
    CRC32 hash (test run)    : 079EA2C8
    CRC32 hash               : 079EA2C8
    CRC32 hash (skip zero)   : 6F35A540
    AccurateRip v1 signature : 8CC1DB59
    AccurateRip v2 signature : CBF68BAE
        ->Track not present in AccurateRip database.
    Statistics
        Read error                           : 0
        Jitter error (maybe fixed)           : 0
        Retry sector count                   : 0
        Damaged sector count                 : 0

Track 02
    Filename : /Volumes/HD 2/Diorama -2013 - Even The Devil Doesn't Care (FLAC)/02 - Diorama - 2013 - Hope.flac

    Track gain               : -8.84 dB
    Peak                     : 0.988495
    CRC32 hash (test run)    : C41BA3FF
    CRC32 hash               : C41BA3FF
    CRC32 hash (skip zero)   : 579FD7AA
    AccurateRip v1 signature : F05F26D7
    AccurateRip v2 signature : 723F2A41
        ->Track not present in AccurateRip database.
    Statistics
        Read error                           : 0
        Jitter error (maybe fixed)           : 0
        Retry sector count                   : 0
        Damaged sector count                 : 0

Track 03
    Filename : /Volumes/HD 2/Diorama -2013 - Even The Devil Doesn't Care (FLAC)/03 - Diorama - 2013 - The Scale.flac

    Track gain               : -9.51 dB
    Peak                     : 0.988495
    CRC32 hash (test run)    : 73D08C31
    CRC32 hash               : 73D08C31
    CRC32 hash (skip zero)   : CA5C667E
    AccurateRip v1 signature : E3400A39
    AccurateRip v2 signature : C55D4060
        ->Track not present in AccurateRip database.
    Statistics
        Read error                           : 0
        Jitter error (maybe fixed)           : 0
        Retry sector count                   : 0
        Damaged sector count                 : 0

Track 04
    Filename : /Volumes/HD 2/Diorama -2013 - Even The Devil Doesn't Care (FLAC)/04 - Diorama - 2013 - My Favourite Song.flac

    Track gain               : -8.66 dB
    Peak                     : 0.985992
    CRC32 hash (test run)    : 92DCEED2
    CRC32 hash               : 92DCEED2
    CRC32 hash (skip zero)   : 71DD86A2
    AccurateRip v1 signature : D13D2265
    AccurateRip v2 signature : B4E4F704
        ->Track not present in AccurateRip database.
    Statistics
        Read error                           : 0
        Jitter error (maybe fixed)           : 0
        Retry sector count                   : 0
        Damaged sector count                 : 0

Track 05
    Filename : /Volumes/HD 2/Diorama -2013 - Even The Devil Doesn't Care (FLAC)/05 - Diorama - 2013 - The Expatriate.flac

    Track gain               : -8.86 dB
    Peak                     : 0.988495
    CRC32 hash (test run)    : 137B0762
    CRC32 hash               : 137B0762
    CRC32 hash (skip zero)   : DC143E92
    AccurateRip v1 signature : EEAAAFBF
    AccurateRip v2 signature : FCD71681
        ->Track not present in AccurateRip database.
    Statistics
        Read error                           : 0
        Jitter error (maybe fixed)           : 0
        Retry sector count                   : 0
        Damaged sector count                 : 0

Track 06
    Filename : /Volumes/HD 2/Diorama -2013 - Even The Devil Doesn't Care (FLAC)/06 - Diorama - 2013 - Summit.flac

    Track gain               : -8.86 dB
    Peak                     : 0.987640
    CRC32 hash (test run)    : 461DC1A0
    CRC32 hash               : 461DC1A0
    CRC32 hash (skip zero)   : D91FC2AB
    AccurateRip v1 signature : A5C47292
    AccurateRip v2 signature : 3E4B981F
        ->Track not present in AccurateRip database.
    Statistics
        Read error                           : 0
        Jitter error (maybe fixed)           : 0
        Retry sector count                   : 0
        Damaged sector count                 : 0

Track 07
    Filename : /Volumes/HD 2/Diorama -2013 - Even The Devil Doesn't Care (FLAC)/07 - Diorama - 2013 - Weiss Und Anthrazit.flac

    Track gain               : -8.06 dB
    Peak                     : 0.947540
    CRC32 hash (test run)    : A5F4E4E4
    CRC32 hash               : A5F4E4E4
    CRC32 hash (skip zero)   : 3C52469D
    AccurateRip v1 signature : EE892870
    AccurateRip v2 signature : 9148D1BA
        ->Track not present in AccurateRip database.
    Statistics
        Read error                           : 0
        Jitter error (maybe fixed)           : 0
        Retry sector count                   : 0
        Damaged sector count                 : 0

Track 08
    Filename : /Volumes/HD 2/Diorama -2013 - Even The Devil Doesn't Care (FLAC)/08 - Diorama - 2013 - When We Meet Again In Hell.flac

    Track gain               : -9.14 dB
    Peak                     : 0.986694
    CRC32 hash (test run)    : 674C6CBA
    CRC32 hash               : 674C6CBA
    CRC32 hash (skip zero)   : 6A9C2AA5
    AccurateRip v1 signature : 3919FEE4
    AccurateRip v2 signature : 6EB4942F
        ->Track not present in AccurateRip database.
    Statistics
        Read error                           : 0
        Jitter error (maybe fixed)           : 0
        Retry sector count                   : 0
        Damaged sector count                 : 0

Track 09
    Filename : /Volumes/HD 2/Diorama -2013 - Even The Devil Doesn't Care (FLAC)/09 - Diorama - 2013 - The Long Way Home From The Party.flac

    Track gain               : -9.36 dB
    Peak                     : 0.988251
    CRC32 hash (test run)    : A49B0166
    CRC32 hash               : A49B0166
    CRC32 hash (skip zero)   : D39482FA
    AccurateRip v1 signature : F1AFE40A
    AccurateRip v2 signature : D86E706F
        ->Track not present in AccurateRip database.
    Statistics
        Read error                           : 0
        Jitter error (maybe fixed)           : 0
        Retry sector count                   : 0
        Damaged sector count                 : 0

Track 10
    Filename : /Volumes/HD 2/Diorama -2013 - Even The Devil Doesn't Care (FLAC)/10 - Diorama - 2013 - Hellogoodbye.flac

    Track gain               : -8.19 dB
    Peak                     : 0.988464
    CRC32 hash (test run)    : 706A68B1
    CRC32 hash               : 706A68B1
    CRC32 hash (skip zero)   : 09E7056D
    AccurateRip v1 signature : 000CB41B
    AccurateRip v2 signature : D50B5240
        ->Track not present in AccurateRip database.
    Statistics
        Read error                           : 0
        Jitter error (maybe fixed)           : 0
        Retry sector count                   : 0
        Damaged sector count                 : 0

Track 11
    Filename : /Volumes/HD 2/Diorama -2013 - Even The Devil Doesn't Care (FLAC)/11 - Diorama - 2013 - My Justice For All.flac

    Track gain               : -7.88 dB
    Peak                     : 0.987305
    CRC32 hash (test run)    : B032791B
    CRC32 hash               : B032791B
    CRC32 hash (skip zero)   : F378FFCE
    AccurateRip v1 signature : 8BB3F2E2
    AccurateRip v2 signature : E203EC76
        ->Track not present in AccurateRip database.
    Statistics
        Read error                           : 0
        Jitter error (maybe fixed)           : 0
        Retry sector count                   : 0
        Damaged sector count                 : 0

Track 12
    Filename : /Volumes/HD 2/Diorama -2013 - Even The Devil Doesn't Care (FLAC)/12 - Diorama - 2013 - Over.flac

    Track gain               : -9.02 dB
    Peak                     : 0.988495
    CRC32 hash (test run)    : 667085B5
    CRC32 hash               : 667085B5
    CRC32 hash (skip zero)   : E31A3735
    AccurateRip v1 signature : B422D50E
    AccurateRip v2 signature : 126E4E43
        ->Track not present in AccurateRip database.
    Statistics
        Read error                           : 0
        Jitter error (maybe fixed)           : 0
        Retry sector count                   : 0
        Damaged sector count                 : 0

No errors occurred

End of status report

Код:

TITLE "Even The Devil Doesn't Care"
PERFORMER "Diorama"
REM GENRE "Alternative"
REM DATE "2013"
REM DISCNUMBER 1
REM TOTALDISCS 1
REM DISCID A410100C
REM REPLAYGAIN_ALBUM_GAIN -8.87 dB
REM REPLAYGAIN_ALBUM_PEAK 0.988495
FILE "01 - Diorama - 2013 - Maison Du Tigre.flac" WAVE
  TRACK 01 AUDIO
    TITLE "Maison Du Tigre"
    PERFORMER "Diorama"
    ISRC DEU551213301
    REM REPLAYGAIN_TRACK_GAIN -8.55 dB
    REM REPLAYGAIN_TRACK_PEAK 0.966003
    INDEX 01 00:00:00
FILE "02 - Diorama - 2013 - Hope.flac" WAVE
  TRACK 02 AUDIO
    TITLE "Hope"
    PERFORMER "Diorama"
    ISRC DEU551213302
    REM REPLAYGAIN_TRACK_GAIN -8.84 dB
    REM REPLAYGAIN_TRACK_PEAK 0.988495
    INDEX 01 00:00:00
FILE "03 - Diorama - 2013 - The Scale.flac" WAVE
  TRACK 03 AUDIO
    TITLE "The Scale"
    PERFORMER "Diorama"
    ISRC DEU551213303
    REM REPLAYGAIN_TRACK_GAIN -9.51 dB
    REM REPLAYGAIN_TRACK_PEAK 0.988495
    INDEX 01 00:00:00
FILE "04 - Diorama - 2013 - My Favourite Song.flac" WAVE
  TRACK 04 AUDIO
    TITLE "My Favourite Song"
    PERFORMER "Diorama"
    ISRC DEU551213304
    REM REPLAYGAIN_TRACK_GAIN -8.66 dB
    REM REPLAYGAIN_TRACK_PEAK 0.985992
    INDEX 01 00:00:00
FILE "05 - Diorama - 2013 - The Expatriate.flac" WAVE
  TRACK 05 AUDIO
    TITLE "The Expatriate"
    PERFORMER "Diorama"
    ISRC DEU551213305
    REM REPLAYGAIN_TRACK_GAIN -8.86 dB
    REM REPLAYGAIN_TRACK_PEAK 0.988495
    INDEX 01 00:00:00
FILE "06 - Diorama - 2013 - Summit.flac" WAVE
  TRACK 06 AUDIO
    TITLE "Summit"
    PERFORMER "Diorama"
    ISRC DEU551213306
    REM REPLAYGAIN_TRACK_GAIN -8.86 dB
    REM REPLAYGAIN_TRACK_PEAK 0.987640
    INDEX 01 00:00:00
FILE "07 - Diorama - 2013 - Weiss Und Anthrazit.flac" WAVE
  TRACK 07 AUDIO
    TITLE "Weiss Und Anthrazit"
    PERFORMER "Diorama"
    ISRC DEU551213307
    REM REPLAYGAIN_TRACK_GAIN -8.06 dB
    REM REPLAYGAIN_TRACK_PEAK 0.947540
    INDEX 01 00:00:00
FILE "08 - Diorama - 2013 - When We Meet Again In Hell.flac" WAVE
  TRACK 08 AUDIO
    TITLE "When We Meet Again In Hell"
    PERFORMER "Diorama"
    ISRC DEU551213308
    REM REPLAYGAIN_TRACK_GAIN -9.14 dB
    REM REPLAYGAIN_TRACK_PEAK 0.986694
    INDEX 01 00:00:00
FILE "09 - Diorama - 2013 - The Long Way Home From The Party.flac" WAVE
  TRACK 09 AUDIO
    TITLE "The Long Way Home From The Party"
    PERFORMER "Diorama"
    ISRC DEU551213309
    REM REPLAYGAIN_TRACK_GAIN -9.36 dB
    REM REPLAYGAIN_TRACK_PEAK 0.988251
    INDEX 01 00:00:00
FILE "10 - Diorama - 2013 - Hellogoodbye.flac" WAVE
  TRACK 10 AUDIO
    TITLE "Hellogoodbye"
    PERFORMER "Diorama"
    ISRC DEU551213310
    REM REPLAYGAIN_TRACK_GAIN -8.19 dB
    REM REPLAYGAIN_TRACK_PEAK 0.988464
    INDEX 01 00:00:00
FILE "11 - Diorama - 2013 - My Justice For All.flac" WAVE
  TRACK 11 AUDIO
    TITLE "My Justice For All"
    PERFORMER "Diorama"
    ISRC DEU551213311
    REM REPLAYGAIN_TRACK_GAIN -7.88 dB
    REM REPLAYGAIN_TRACK_PEAK 0.987305
    INDEX 01 00:00:00
FILE "12 - Diorama - 2013 - Over.flac" WAVE
  TRACK 12 AUDIO
    TITLE "Over"
    PERFORMER "Diorama"
    ISRC DEU551213312
    REM REPLAYGAIN_TRACK_GAIN -9.02 dB
    REM REPLAYGAIN_TRACK_PEAK 0.988495
    INDEX 01 00:00:00

Этот торрент недоступен для скачивания без регистрации, однако доступен по публичной magnet-ссылке (источники с публичных трекеров). Перед использованием ссылки прочтите, пожалуйста Пользовательское соглашение, а также как можно дольше оставайтесь на раздаче! Для того, чтобы скачать сам торрент-файл (который видит больше источников), а также для того, чтобы поблагодарить релизера, вам необходимо зарегистрироваться. Если регистрироваться лень - вы можете также попробовать скачать релиз по нашим партнерским ссылкам ниже. Кроме того, зарегистрированным пользователям не показывается всплывающая реклама при скачивании.

[underverse.su].t42300.torrent
Трекер: Зарегистрирован   [ 03.08.2014 11:21 ]  

Статус: проверено (by Бишеп at 03.08.2014 11:21)
Поблагодарили: пока никто не поблагодарил...
Тип торрента: публичный - доступные источники с открытых трекеров: 
Размер: 473 MB (занимает 0,11 DVDR, для записи нужно 1 болванка DVDR/RW)
 
 
Похожие темы
Форум Тема Автор Торрент Отв. Посл. сооб.
EBM, Industrial, Dark Electro, Darkwave, Gothic Synth (Darkwave, Post Punk, Synthpop) Hexheart - A Thousand Times (2017) [MP3, 320 kbps CBR] Darkferse
2 | 0

0 | 401

2

28.05.2017 08:15

EBM, Industrial, Dark Electro, Darkwave, Gothic Synth (Darkwave, EBM, Gothic Industrial) Samtaugen - ID (2014) [MP3, 320 kbps] ANDRAKO
0 | 0

0 | 571

3

14.12.2016 19:49

EBM, Industrial, Dark Electro, Darkwave, Gothic Synth (Darkwave, EBM) Sara Noxx - Entre Quatre Yeuxx (2015) [MP3, 320 kbps] ANDRAKO
0 | 0

0 | 572

3

11.12.2016 10:18

EBM, Industrial, Dark Electro, Darkwave, Gothic Synth (Darkwave, Industrial, Post-Punk) Bestial Mouths - Heartless (2016) [MP3, 320 kbps CBR] Darkferse
1 | 0

0 | 445

1

16.03.2017 11:34

EBM, Industrial, Dark Electro, Darkwave, Gothic Synth (Darkwave, Coldwave, Gothic Rock) In My Despair - Emptiness In My Head (EP) (2017) [MP3, 320 kbps CBR] Darkferse
2 | 0

0 | 444

4

25.04.2017 21:59

EBM, Industrial, Dark Electro, Darkwave, Gothic Synth (Darkwave, Gothic, Industrial) Neutrale Erde - Quasar (2017) [MP3, 320 kbps CBR] Darkferse
2 | 0

0 | 473

3

25.04.2017 22:05

EBM, Industrial, Dark Electro, Darkwave, Gothic Synth (Darkwave, EBM, Gothic Synth) ManOK - День Гнева (2017) [MP3, 320 kbps CBR] Darkferse
5 | 1

0 | 526

2

26.04.2017 21:00

EBM, Industrial, Dark Electro, Darkwave, Gothic Synth (Darkwave, Ethereal Wave, Dark Ambient) Aythis - The Illusion and The Twin (2016) [MP3, 320 kbps CBR] Darkferse
1 | 0

0 | 494

2

10.06.2017 09:40

EBM, Industrial, Dark Electro, Darkwave, Gothic Synth (Darkwave, EBM, Industrial) Third Realm - The Suffering Angel (2017) [MP3, 320 kbps CBR] Darkferse
6 | 0

0 | 413

3

07.07.2017 19:19

EBM, Industrial, Dark Electro, Darkwave, Gothic Synth (Darkwave, EBM, Industrial) Schwarzblut - Discography (2008-2017) [MP3, 320 kbps CBR] Darkferse
13 | 3

0 | 258

2

13.12.2017 15:10


Яндекс.Метрика powered by Sphinx


В Н И М А Н И Е
Сайт не распространяет и не хранит электронные версии произведений, а лишь бесплатно и без коммерческой выгоды (не требуя взамен платы,
SMS и т.д.) предоставляет доступ к создаваемому пользователями каталогу ссылок на торрент-файлы, которые содержат только списки хеш-сумм.
Убедительная просьба с жалобами обращаться напрямую к пользователю, разместившему торрент файл.

Вверх