Loading...
Error

Белый плен / Eight Below (Фрэнк Маршалл / Frank Marshall) [2006, США, драма, мелодрама, приключения, BDRemux 1080p] Dub + AVO (Немахов) + Original (Eng) + Subs (Rus, Eng)

Статистика раздачи
Размер:  17,27 GB   |    Зарегистрирован:  3 года 10 месяцев   |    Скачан:  4 раза

Полного источника не было: 3 месяца 8 дней

Сидов:  0  |  0 KB/s  ]   Личеров:  0  |  0 KB/s  ]

* - сиды/пиры с внешних источников

   
 
Автор Сообщение

uzi2009 Пол:Муж

04-Авг-2014 10:54

Белый плен / Eight Below
Страна: США
Студия: Walt Disney Pictures, Spyglass Entertainment, The Kennedy/Marshall Company, Vertigo Entertainment, Winking Productions.
Жанр: драма, мелодрама, приключения
Год выпуска: 2006
Продолжительность: 02:00:25

Перевод 1: Профессиональный (дублированный) Blu-ray
Перевод 2: Авторский (одноголосый закадровый) Ю. Немахов
Cубтитры: русские (forced, full, commentary1, commentary2), английские
Оригинальная аудиодорожка: английский

Режиссер: Фрэнк Маршалл / Frank Marshall

В ролях: Пол Уокер, Брюс Гринвуд, Мун Бладгуд, Венди Крюсон, Джерард Планкет, Аугуст Шелленберг, Джейсон Биггз и др.

Описание: Действие фильма разворачивается на бескрайних просторах Антарктики. Научная экспедиция, в состав которой входят Джерри Шепард, его лучший друг Купер и геолог, отправляется на поиски метеорита.

Однако неожиданное происшествие и тяжелые погодные условия вынуждают их оставить свои собачьи упряжки и вернуться назад. И теперь восемь собак должны в течение шести месяцев бороться за выживание в ледяной пустыне и ждать, пока их спасут…



Тип релиза: BDRemux 1080p [Eight Below 2006 Blu-ray 1080p AVC LPCM 5.1]
Контейнер: MKV
Видео: MPEG-4 AVC / 15602 kbps / 1920x1080 / 23,976 fps / 16:9 / High Profile 4.1
Аудио 1: Russian AC3 / 5.1 / 48 kHz / 640 kbps / 16 bits |Dub, Blu-ray|
Аудио 2: Russian DTS-HD Master Audio / 5.1 / 48 kHz / 1956 kbps / 16 bits (DTS Core: 5.1 / 48 kHz / 1509 kbps / 16 bits) |Ю. Немахов|
Аудио 3: English DTS-HD Master Audio / 5.1 / 48 kHz / 1947 kbps / 16 bits (DTS Core: 5.1 / 48 kHz / 1509 kbps / 16 bits) |original|
Аудио 4: English AC3 / 2.0 / 48 kHz / 192 kbps / 16 bits |комментарии Фрэнка Маршала и Пэта Кроул|
Аудио 5: English AC3 / 2.0 / 48 kHz / 192 kbps / 16 bits |комментарии Фрэнка Маршала и Пола Уолкера|
Формат субтитров: softsub [SRT]


Код:

Общее
Уникальный идентификатор                 : 171378072053669736348573097913718704216 (0x80EE3750E2777231ACBEAE8B7DA88858)
Полное имя                               : G:\HD\Белый плен.2006.Blu-Ray.Remux.(1080p).mkv
Формат                                   : Matroska
Версия формата                           : Version 4 / Version 2
Размер файла                             : 17,3 Гбайт
Продолжительность                        : 2 ч. 0 м.
Режим общего битрейта                    : Переменный
Общий поток                              : 20,5 Мбит/сек
Дата кодирования                         : UTC 2014-01-27 14:48:38
Программа кодирования                    : mkvmerge v6.7.0 ('Back to the Ground') 64bit built on Jan  8 2014 15:10:52
Библиотека кодирования                   : libebml v1.3.0 + libmatroska v1.4.1
Attachment                               : Yes

Видео
Идентификатор                            : 1
Формат                                   : AVC
Формат/Информация                        : Advanced Video Codec
Профиль формата                          : High@L4.1
Параметр CABAC формата                   : Да
Параметр ReFrames формата                : 2 кадра
Параметр GOP формата                     : M=3, N=24
Идентификатор кодека                     : V_MPEG4/ISO/AVC
Продолжительность                        : 2 ч. 0 м.
Ширина                                   : 1920 пикселей
Высота                                   : 1080 пикселей
Соотношение сторон                       : 16:9
Режим частоты кадров                     : Постоянный
Частота кадров                           : 23,976 кадра/сек
Цветовое пространство                    : YUV
Субдискретизация насыщенности            : 4:2:0
Битовая глубина                          : 8 бит
Тип развёртки                            : Прогрессивная
Default                                  : Да
Forced                                   : Нет

Аудио #1
Идентификатор                            : 2
Формат                                   : AC-3
Формат/Информация                        : Audio Coding 3
Расширение режима                        : CM (complete main)
Параметр Endianness формата              : Big
Идентификатор кодека                     : A_AC3
Продолжительность                        : 2 ч. 0 м.
Вид битрейта                             : Постоянный
Битрейт                                  : 640 Кбит/сек
Каналы                                   : 6 каналов
Расположение каналов                     : Front: L C R, Side: L R, LFE
Частота                                  : 48,0 КГц
Битовая глубина                          : 16 бит
Метод сжатия                             : С потерями
Размер потока                            : 552 Мбайт (3%)
Заголовок                                : Dub, Blu-ray
Язык                                     : Russian
Default                                  : Да
Forced                                   : Нет

Аудио #2
Идентификатор                            : 3
Формат                                   : DTS
Формат/Информация                        : Digital Theater Systems
Профиль формата                          : MA / Core
Режим                                    : 16
Параметр Endianness формата              : Big
Идентификатор кодека                     : A_DTS
Продолжительность                        : 2 ч. 0 м.
Вид битрейта                             : Переменный
Битрейт                                  : Неизвестно / 1509 Кбит/сек
Каналы                                   : 6 каналов
Расположение каналов                     : Front: L C R, Side: L R, LFE
Частота                                  : 48,0 КГц
Битовая глубина                          : 16 бит
Метод сжатия                             : Без потерь / Lossy
Заголовок                                : Ю. Немахов
Язык                                     : Russian
Default                                  : Нет
Forced                                   : Нет

Аудио #3
Идентификатор                            : 4
Формат                                   : DTS
Формат/Информация                        : Digital Theater Systems
Профиль формата                          : MA / Core
Режим                                    : 16
Параметр Endianness формата              : Big
Идентификатор кодека                     : A_DTS
Продолжительность                        : 2 ч. 0 м.
Вид битрейта                             : Переменный
Битрейт                                  : Неизвестно / 1509 Кбит/сек
Каналы                                   : 6 каналов
Расположение каналов                     : Front: L C R, Side: L R, LFE
Частота                                  : 48,0 КГц
Битовая глубина                          : 16 бит
Метод сжатия                             : Без потерь / Lossy
Язык                                     : English
Default                                  : Нет
Forced                                   : Нет

Аудио #4
Идентификатор                            : 5
Формат                                   : AC-3
Формат/Информация                        : Audio Coding 3
Профиль формата                          : Dolby Digital
Расширение режима                        : CM (complete main)
Параметр Endianness формата              : Big
Идентификатор кодека                     : A_AC3
Продолжительность                        : 2 ч. 0 м.
Вид битрейта                             : Постоянный
Битрейт                                  : 192 Кбит/сек
Каналы                                   : 2 канала
Расположение каналов                     : Front: L R
Частота                                  : 48,0 КГц
Битовая глубина                          : 16 бит
Метод сжатия                             : С потерями
Размер потока                            : 166 Мбайт (1%)
Заголовок                                : комментарии Фрэнка Маршала и Пэта Кроули
Язык                                     : English
Default                                  : Нет
Forced                                   : Нет

Аудио #5
Идентификатор                            : 6
Формат                                   : AC-3
Формат/Информация                        : Audio Coding 3
Профиль формата                          : Dolby Digital
Расширение режима                        : CM (complete main)
Параметр Endianness формата              : Big
Идентификатор кодека                     : A_AC3
Продолжительность                        : 2 ч. 0 м.
Вид битрейта                             : Постоянный
Битрейт                                  : 192 Кбит/сек
Каналы                                   : 2 канала
Расположение каналов                     : Front: L R
Частота                                  : 48,0 КГц
Битовая глубина                          : 16 бит
Метод сжатия                             : С потерями
Размер потока                            : 166 Мбайт (1%)
Заголовок                                : комментарии Фрэнка Маршала и Пола Уолкера
Язык                                     : English
Default                                  : Нет
Forced                                   : Нет

Текст #1
Идентификатор                            : 7
Формат                                   : UTF-8
Идентификатор кодека                     : S_TEXT/UTF8
Идентификатор кодека/Информация          : UTF-8 Plain Text
Заголовок                                : forced
Язык                                     : Russian
Default                                  : Да
Forced                                   : Нет

Текст #2
Идентификатор                            : 8
Формат                                   : UTF-8
Идентификатор кодека                     : S_TEXT/UTF8
Идентификатор кодека/Информация          : UTF-8 Plain Text
Заголовок                                : full
Язык                                     : Russian
Default                                  : Нет
Forced                                   : Нет

Текст #3
Идентификатор                            : 9
Формат                                   : UTF-8
Идентификатор кодека                     : S_TEXT/UTF8
Идентификатор кодека/Информация          : UTF-8 Plain Text
Заголовок                                : комментарии Фрэнка Маршала и Пэта Кроули
Язык                                     : Russian
Default                                  : Нет
Forced                                   : Нет

Текст #4
Идентификатор                            : 10
Формат                                   : UTF-8
Идентификатор кодека                     : S_TEXT/UTF8
Идентификатор кодека/Информация          : UTF-8 Plain Text
Заголовок                                : комментарии Фрэнка Маршала и Пола Уолкера
Язык                                     : Russian
Default                                  : Нет
Forced                                   : Нет

Текст #5
Идентификатор                            : 11
Формат                                   : UTF-8
Идентификатор кодека                     : S_TEXT/UTF8
Идентификатор кодека/Информация          : UTF-8 Plain Text
Язык                                     : English
Default                                  : Нет
Forced                                   : Нет

Меню
00:00:00.000                             : :Chapter 01
00:04:22.929                             : :Chapter 02
00:14:58.439                             : :Chapter 03
00:22:54.790                             : :Chapter 04
00:30:10.767                             : :Chapter 05
00:39:53.516                             : :Chapter 06
00:54:29.140                             : :Chapter 07
01:01:39.487                             : :Chapter 08
01:07:02.560                             : :Chapter 09
01:19:23.758                             : :Chapter 10
01:28:35.226                             : :Chapter 11
01:37:59.665                             : :Chapter 12
01:43:03.051                             : :Chapter 13
01:52:54.976                             : :Chapter 14
02:00:23.632                             : :Chapter 15
pic pic pic pic pic
Дополнительно

Цитата:
За дубляж спасибо bluebird-hd

За голос Ю.Немахова спасибо Jiraya87 и delo2006

За форсированные русские сабы спасибо shartm

Этот торрент недоступен для скачивания без регистрации, однако доступен по публичной magnet-ссылке (источники с публичных трекеров). Перед использованием ссылки прочтите, пожалуйста Пользовательское соглашение, а также как можно дольше оставайтесь на раздаче! Для того, чтобы скачать сам торрент-файл (который видит больше источников), а также для того, чтобы поблагодарить релизера, вам необходимо зарегистрироваться. Если регистрироваться лень - вы можете также попробовать скачать релиз по нашим партнерским ссылкам ниже. Кроме того, зарегистрированным пользователям не показывается всплывающая реклама при скачивании.

[underverse.su].t42322.torrent
Трекер: Зарегистрирован   [ 04.08.2014 10:54 ]  

Статус: проверено (by Паукан at 12.08.2014 07:23)
Поблагодарили: пока никто не поблагодарил...
Тип торрента: публичный - доступные источники с открытых трекеров: 
Размер: 17,27 GB (занимает 3,95 DVDR, для записи нужно 4 болванки DVDR/RW)
 
 
Похожие темы
Форум Тема Автор Торрент Отв. Посл. сооб.
Зарубежное кино [DVDRip, Low-Res HDRip, и т.д.] Белый плен / Eight Below (Фрэнк Маршалл) [2006 г., мелодрама, драма, приключения, семейный, HDRip] Dub Лина
0 | 0

2 | 1859

7

04.01.2014 16:42

Архив (художественные фильмы) Белый Плен / Eight Below (Фрэнк Маршалл / Frank Marshall) [2006 г., приключения, драма, семейный, BDRip] Dub + Original 90ytr90
0 | 0

1 | 1449

20

31.01.2018 14:54


Яндекс.Метрика powered by Sphinx


В Н И М А Н И Е
Сайт не распространяет и не хранит электронные версии произведений, а лишь бесплатно и без коммерческой выгоды (не требуя взамен платы,
SMS и т.д.) предоставляет доступ к создаваемому пользователями каталогу ссылок на торрент-файлы, которые содержат только списки хеш-сумм.
Убедительная просьба с жалобами обращаться напрямую к пользователю, разместившему торрент файл.

Вверх