Loading...
Error

Солист / The Soloist (Джо Райт / Joe Wright) [2009, США, Франция, Великобритания, драма, музыка, биография, BDRemux 1080p] DUB + AVO C. Визгунов + Subs (rus, ukr, eng) + original eng

Статистика раздачи
Размер:  31,29 GB   |    Зарегистрирован:  3 года 11 месяцев   |    Скачан:  2 раза

Полного источника не было: 2 года 5 месяцев

Сидов:  0  |  0 KB/s  ]   Личеров:  0  |  0 KB/s  ]

* - сиды/пиры с внешних источников

   
 
Автор Сообщение

uzi2009 Пол:Муж

04-Авг-2014 11:29

Солист / The Soloist


Страна: США
Студия: DreamWorks Pictures, Universal Pictures, Studio Canal, Participant Media, Krasnoff Foster Productions, Working Title Films
Жанр: драма, музыка, биография
Год выхода: 2009
Продолжительность: 01:57:02

Перевод 1: Профессиональный (дублированный) R5
Перевод 2: Авторский закадровый С. Визгунов

Русские субтитры: только надписи и субтитры на комментарии режиссёра

Режиссер: Джо Райт / Joe Wright

В ролях: Джейми Фокс, Роберт Дауни мл., Кэтрин Кинер, Том Холландер, Лиза Гэй Хэмилтон, Нелсан Эллис, Рэйчел Харрис, Стивен Рут, Лоррейн Туссен, Джастин Мартин

Описание: Журналист Стив Лопес встречает Натаниеля Айерса, бывшего виртуозного музыканта, вынужденного играть на виолончели на улицах Лос-Анджелеса. Лопес пытается помочь бездомному вернуться к нормальной жизни, и между ними возникает уникальная дружба, которая меняет судьбу обоих.

Тип релиза: BDRemux (исходник - The Soloist 2008 1080p Blu-ray AVC TrueHD 5.1-CtrlHD)
Контейнер: MKV

Видео: MPEG-4 AVC Video / 30543 kbps / 1080p / 23,976 fps / 16:9
Аудио#1: Russian: AC3, 5.1 / 48 kHz / 384 kbps Профессиональный дубляж R5 AC3 to wav (azid) -> PAL to NTSC (eac3to -slowdown) -> wav to AC3 (Sony Vegas)
Аудио#2: Russian: DTS-HD MA 5.1 / 48 kHz / 3540 kbps / 24-bit (DTS Core: 5.1 / 48 kHz / 1509 kbps / 24-bit) C. Визгунов
Аудио#3: English: DTS-HD MA 5.1 / 48 kHz / 3491 kbps / 24-bit (DTS Core: 5.1 / 48 kHz / 1509 kbps / 24-bit) кодирован из исходной Dolby TrueHD Audio / 3100 kbps / 5.1 / 48 kHz / 24-bit
Аудио#4: English: AC3, 2.0 / 48 kHz / 192 kbps комментарии режиссёра Джо Райта
Субтитры: русские R5 (forced), украинские R5, английские (обычные и SDH), французские, русские R5 (на комментарий режиссёра + частичный перевод текста фильма)
Главы: с Blu-ray

Цитата:

Цитата:





  • Дорожка №2 получена наложением чистого голоса на центр декодированной оригинальной TrueHD
.
pic pic pic pic pic


Код:

Complete name                    : The.Soloist.2008.1080p.Blu-ray.Remux.arka.mkv
Format                           : Matroska
Format version                   : Version 2
File size                        : 31.3 GiB
Duration                         : 1h 57mn
Overall bit rate mode            : Variable
Overall bit rate                 : 38.3 Mbps
Movie name                       : The Soloist 2008 1080p Blu-ray Remux AVC DTS-HD MA arka
Encoded date                     : UTC 2012-02-05 21:11:19
Writing application              : mkvmerge v5.2.1 ('A Far Off Place') built on Jan  2 2012 23:21:10
Writing library                  : libebml v1.2.3 + libmatroska v1.3.0

Video
ID                               : 1
Format                           : AVC
Format/Info                      : Advanced Video Codec
Format profile                   : High@L4.1
Format settings, CABAC           : Yes
Format settings, ReFrames        : 2 frames
Codec ID                         : V_MPEG4/ISO/AVC
Duration                         : 1h 57mn
Bit rate mode                    : Variable
Bit rate                         : 33.8 Mbps
Width                            : 1 920 pixels
Height                           : 1 080 pixels
Display aspect ratio             : 16:9
Frame rate                       : 23.976 fps
Color space                      : YUV
Chroma subsampling               : 4:2:0
Bit depth                        : 8 bits
Scan type                        : Progressive
Bits/(Pixel*Frame)               : 0.680
Stream size                      : 27.6 GiB (88%)
Title                            : MPEG-4 AVC Video 30544 kbps / 1080p / 23,976 fps / 16:9 / High Profile 4.1
Language                         : English
Default                          : Yes
Forced                           : No

Audio #1
ID                               : 2
Format                           : AC-3
Format/Info                      : Audio Coding 3
Mode extension                   : CM (complete main)
Codec ID                         : A_AC3
Duration                         : 1h 57mn
Bit rate mode                    : Constant
Bit rate                         : 384 Kbps
Channel(s)                       : 6 channels
Channel positions                : Front: L C R, Side: L R, LFE
Sampling rate                    : 48.0 KHz
Bit depth                        : 16 bits
Compression mode                 : Lossy
Stream size                      : 321 MiB (1%)
Title                            : DUB R5
Language                         : Russian
Default                          : Yes
Forced                           : No

Audio #2
ID                               : 3
Format                           : DTS
Format/Info                      : Digital Theater Systems
Format profile                   : MA / Core
Codec ID                         : A_DTS
Duration                         : 1h 57mn
Bit rate mode                    : Variable
Bit rate                         : 1 561 Kbps / 1 510 Kbps
Channel(s)                       : 6 channels
Channel positions                : Front: L C R, Side: L R, LFE
Sampling rate                    : 48.0 KHz
Bit depth                        : 24 bits
Compression mode                 : Lossless / Lossy
Title                            : S.Vizgunov DTS-HD MA 3540 kbps / 5.1 / 48 kHz / 24-bit (DTS Core: 5.1 / 48 kHz / 1509 kbps / 24-bit)
Language                         : Russian
Default                          : No
Forced                           : No

Audio #3
ID                               : 4
Format                           : DTS
Format/Info                      : Digital Theater Systems
Format profile                   : MA / Core
Codec ID                         : A_DTS
Duration                         : 1h 57mn
Bit rate mode                    : Variable
Bit rate                         : 1 561 Kbps / 1 510 Kbps
Channel(s)                       : 6 channels
Channel positions                : Front: L C R, Side: L R, LFE
Sampling rate                    : 48.0 KHz
Bit depth                        : 24 bits
Compression mode                 : Lossless / Lossy
Title                            : DTS-HD MAudio 3491 kbps / 5.1 / 48 kHz / 24-bit (DTS Core: 5.1 / 48 kHz / 1509 kbps / 24-bit)
Language                         : English
Default                          : No
Forced                           : No

Audio #4
ID                               : 5
Format                           : AC-3
Format/Info                      : Audio Coding 3
Mode extension                   : CM (complete main)
Codec ID                         : A_AC3
Duration                         : 1h 57mn
Bit rate mode                    : Constant
Bit rate                         : 192 Kbps
Channel(s)                       : 2 channels
Channel positions                : Front: L R
Sampling rate                    : 48.0 KHz
Bit depth                        : 16 bits
Compression mode                 : Lossy
Stream size                      : 161 MiB (1%)
Title                            : Commentary by director Joe Wright
Language                         : English
Default                          : No
Forced                           : No

Text #1
ID                               : 6
Format                           : UTF-8
Codec ID                         : S_TEXT/UTF8
Codec ID/Info                    : UTF-8 Plain Text
Title                            : R5 forced
Language                         : Russian
Default                          : No
Forced                           : No

Text #2
ID                               : 7
Format                           : UTF-8
Codec ID                         : S_TEXT/UTF8
Codec ID/Info                    : UTF-8 Plain Text
Title                            : R5
Language                         : Ukrainian
Default                          : No
Forced                           : No

Text #3
ID                               : 8
Format                           : UTF-8
Codec ID                         : S_TEXT/UTF8
Codec ID/Info                    : UTF-8 Plain Text
Title                            : R5 on commentary by director Joe Wright
Language                         : Russian
Default                          : No
Forced                           : No

Text #4
ID                               : 9
Format                           : UTF-8
Codec ID                         : S_TEXT/UTF8
Codec ID/Info                    : UTF-8 Plain Text
Title                            : srt
Language                         : English
Default                          : No
Forced                           : No

Text #5
ID                               : 10
Format                           : PGS
Codec ID                         : S_HDMV/PGS
Codec ID/Info                    : The same subtitle format used on BDs/HD-DVDs
Title                            : PGS
Language                         : English
Default                          : No
Forced                           : No

Text #6
ID                               : 11
Format                           : PGS
Codec ID                         : S_HDMV/PGS
Codec ID/Info                    : The same subtitle format used on BDs/HD-DVDs
Title                            : PGS SDH
Language                         : English
Default                          : No
Forced                           : No

Text #7
ID                               : 12
Format                           : PGS
Codec ID                         : S_HDMV/PGS
Codec ID/Info                    : The same subtitle format used on BDs/HD-DVDs
Title                            : PGS
Language                         : French
Default                          : No
Forced                           : No

Menu
00:00:00.000                     : en:00:00:00.000
00:05:15.315                     : en:00:05:15.315
00:10:50.859                     : en:00:10:50.859
00:14:46.677                     : en:00:14:46.677
00:19:59.115                     : en:00:19:59.115
00:25:56.680                     : en:00:25:56.680
00:28:56.693                     : en:00:28:56.693
00:36:19.386                     : en:00:36:19.386
00:41:32.115                     : en:00:41:32.115
00:47:33.934                     : en:00:47:33.934
00:55:44.383                     : en:00:55:44.383
00:58:38.098                     : en:00:58:38.098
01:04:37.916                     : en:01:04:37.916
01:10:30.143                     : en:01:10:30.143
01:17:13.629                     : en:01:17:13.629
01:22:56.054                     : en:01:22:56.054
01:27:57.314                     : en:01:27:57.314
01:36:31.077                     : en:01:36:31.077
01:40:29.523                     : en:01:40:29.523
01:44:58.000                     : en:01:44:58.000
01:48:21.704                     : en:01:48:21.704

Этот торрент недоступен для скачивания без регистрации, однако доступен по публичной magnet-ссылке (источники с публичных трекеров). Перед использованием ссылки прочтите, пожалуйста Пользовательское соглашение, а также как можно дольше оставайтесь на раздаче! Для того, чтобы скачать сам торрент-файл (который видит больше источников), а также для того, чтобы поблагодарить релизера, вам необходимо зарегистрироваться. Если регистрироваться лень - вы можете также попробовать скачать релиз по нашим партнерским ссылкам ниже. Кроме того, зарегистрированным пользователям не показывается всплывающая реклама при скачивании.

[underverse.su].t42325.torrent
Трекер: Зарегистрирован   [ 04.08.2014 11:29 ]  

Статус: проверено (by Паукан at 12.08.2014 07:23)
Поблагодарили: 1 человек
Тип торрента: публичный - доступные источники с открытых трекеров: 
Размер: 31,29 GB (занимает 7,15 DVDR, для записи нужно 8 болванок DVDR/RW)
 
 
Похожие темы
Форум Тема Автор Торрент Отв. Посл. сооб.
* Архив (художественные фильмы) Солист / The Soloist (Джо Райт) [2009 г., драма, музыка, биография, DVDRip] Енакін Скайвокер

8 | 1859

29.08.2010 23:52

24-Май-2018 22:43

Топик был перенесен из форума Зарубежное кино [DVD / HDDVD / BD / Remux] в форум Архив (зарубежное кино высокого качества)


[cron robot]
 

Яндекс.Метрика powered by Sphinx


В Н И М А Н И Е
Сайт не распространяет и не хранит электронные версии произведений, а лишь бесплатно и без коммерческой выгоды (не требуя взамен платы,
SMS и т.д.) предоставляет доступ к создаваемому пользователями каталогу ссылок на торрент-файлы, которые содержат только списки хеш-сумм.
Убедительная просьба с жалобами обращаться напрямую к пользователю, разместившему торрент файл.

Вверх