Loading...
Error

Вампиры / Vampires (Джон Карпентер / John Carpenter) [1998, США, Япония, ужасы, фэнтези, боевик, Blu-ray (custom) 1080p] +3 VO (Визгунов, Живов, (Завгородный - нецензурная лексика)) + MVO (Rus)+ Orignal+ subs (Rus)

Статистика раздачи
Размер:  41,2 GB   |    Зарегистрирован:  3 года 11 месяцев   |    Скачан:  2 раза

Полного источника не было: 8 месяцев

Сидов:  0  |  0 KB/s  ]   Личеров:  0  |  0 KB/s  ]

* - сиды/пиры с внешних источников

   
 
Автор Сообщение

uzi2009 Пол:Муж

13-Авг-2014 08:29

Вампиры / Vampires

Год выпуска: 1998
Страна: США, Япония
Слоган: «Prepare for the Dawn.»

Жанр: ужасы, фэнтези, боевик, триллер
Перевод: Профессиональный (полное дублирование)
Режиссер: Джон Карпентер / John Carpenter
Сценарий: Джон Стикли / John Steakley, Дон Джекоби / Don Jakoby
Продюсер: Дон Джекоби / Don Jakoby, Сэнди Кинг / Sandy King, Барр Б. Поттер / Barr B. Potter, Дэвид Роджерс / David Rodgers
Оператор: Гэри Б. Кибби / Gary B. Kibbe
Композитор: Джон Карпентер / John Carpenter
В ролях: Джеймс Вудс (Jack Crow), Дэниэл Болдуин (Anthony Montoya), Шерил Ли (Katrina), Томас Йен Гриффит (Jan Valek), Максимилиан Шелл (Cardinal Alba), Тим Гини (Father Adam Guiteau), Марк Бун Джуниор (Catlin), Грегори Сьерра (Father Giovanni), Кэри-Хироюки Тагава (David Deyo), Томас Розалес мл. (Ortega), Генри Кинги (Anthony), David Rowden (Bambi)
Бюджет: $20 000 000
Сборы в США: $20 308 772

Мировая премьера: 15 апреля 1998
Описание: По заданию Ватикана Джек Кроу, потомственный охотник на вампиров, и его друг, и напарник Монтойя безжалостно расправляются с вурдалаками, но их главная цель - особо опасный вампир Валек, уроженец Праги, 1300-го года рождения. В охоте на вампира Джеку и Монтойе помогает молодой священник, вооруженный знаниями из древних трактатов о кровососах.
Валек ищет в Штатах древнее распятие, обладающее особой силой. Как известно, вампиры боятся солнечных лучей, убивающих их. Проведение магического обряда с распятием позволит Валеку не бояться солнечного света и сделает его всемогущим. Охотники за вампирами должны поспешить, пока Валек еще уязвим, пока его еще можно убить…
Рейтинг
kinopoisk.ru: 6.929 (5 526)
imdb.com: 6.10 (36 672)
MPAA: R - Лицам до 17 лет обязательно присутствие взрослого
Сэмпл
Меню: Есть, анимированное, озвученное, на русском языке.

Тип релиза: Blu-ray (custom) 1080p
Контейнер: BDMV
Видео: MPEG-4 AVC Video / 34580 kbps / 1080p / 24 fps / 16:9 / High Profile 4.1

Audio: English / DTS-HD Master Audio / 5.1 / 48 kHz / 2331 kbps / 16-bit (DTS Core: 5.1 / 48 kHz / 1509 kbps / 16-bit)
Audio: Russian / DTS-HD Audio / 5.1 / 48 kHz / 2046 kbps / 16-bit (DTS Core: 5.1 / 48 kHz / 1509 kbps / 16-bit) VO Визгунов
Audio: Russian / DTS Audio / 5.1 / 48 kHz / 1509 kbps / 16-bit VO Живов
Audio: Russian / DTS Audio / 5.1 / 48 kHz / 768 kbps / 24-bit MVO
Audio: Russian / Dolby Digital Audio / 5.1 / 48 kHz / 448 kbps Дубляж
Audio: Russian / Dolby Digital Audio / 5.1 / 48 kHz / 448 kbps VO Завгородний нецензурная лексика
Субтитры: Русские
Disc Title: Vampires.BlueBird
Disc Size: 44 243 406 988 bytes
Protection: AACS
BD-Java: No
BDInfo: 0.5.2

Notes:

BDINFO HOME AND REPORTS SUBMISSION:
Cinema Squid
http://www.cinemasquid.com/Tools.aspx

INCLUDES FORUMS REPORT FOR:
Unofficial Blu-ray Audio and Video Specifications Thread
http://www.avsforum.com/avs-vb/showthread.php?t=760714
http://forum.blu-ray.com/showthread.php?t=3338

********************
PLAYLIST: 00003.MPLS
********************

Код:

Total   Video
Title                                                           Codec   Length  Movie Size      Disc Size       Bitrate Bitrate Main Audio Track                          Secondary Audio Track
-----                                                           ------  ------- --------------  --------------  ------- ------- ------------------                        ---------------------
00003.MPLS                                                      AVC     1:47:47 36 137 773 056  44 243 406 988  44,70   34,58   DTS-HD Master 5.1 2331Kbps (48kHz/16-bit)


Код:

DISC INFO:

Disc Title:     Vampires.BlueBird
Disc Size:      44 243 406 988 bytes
Protection:     AACS
BD-Java:        No
BDInfo:         0.5.2

PLAYLIST REPORT:

Name:                   00003.MPLS
Size:                   36 137 773 056 bytes
Length:                 1:47:47 (h:m:s)
Total Bitrate:          44,70 Mbps
Description:

VIDEO:

Codec                   Bitrate             Description
-----                   -------             -----------
MPEG-4 AVC Video        34580 kbps          1080p / 24 fps / 16:9 / High Profile 4.1

AUDIO:

Codec                           Language        Bitrate         Description
-----                           --------        -------         -----------
DTS-HD Master Audio             English         2331 kbps       5.1 / 48 kHz / 2331 kbps / 16-bit (DTS Core: 5.1 / 48 kHz / 1509 kbps / 16-bit)
DTS-HD Audio                    Russian         2046 kbps       5.1 / 48 kHz / 2046 kbps / 16-bit (DTS Core: 5.1 / 48 kHz / 1509 kbps / 16-bit)
DTS Audio                       Russian         1509 kbps       5.1 / 48 kHz / 1509 kbps / 16-bit
DTS Audio                       Russian         768 kbps        5.1 / 48 kHz / 768 kbps / 24-bit
Dolby Digital Audio             Russian         448 kbps        5.1 / 48 kHz / 448 kbps
Dolby Digital Audio             Russian         448 kbps        5.1 / 48 kHz / 448 kbps

SUBTITLES:

Codec                           Language        Bitrate         Description
-----                           --------        -------         -----------
Presentation Graphics           Russian         16,749 kbps

FILES:

Name            Time In         Length          Size            Total Bitrate
----            -------         ------          ----            -------------
00003.M2TS      0:00:00.000     1:47:47.083     36 137 773 056  44 704

CHAPTERS:

Number          Time In         Length          Avg Video Rate  Max 1-Sec Rate  Max 1-Sec Time  Max 5-Sec Rate  Max 5-Sec Time  Max 10Sec Rate  Max 10Sec Time  Avg Frame Size  Max Frame Size  Max Frame Time
------          -------         ------          --------------  --------------  --------------  --------------  --------------  --------------  --------------  --------------  --------------  --------------
1               0:00:00.000     0:03:37.666     33 483 kbps     50 431 kbps     00:00:45.916    40 193 kbps     00:02:04.166    39 379 kbps     00:01:59.166    174 356 bytes   572 790 bytes   00:03:24.333
2               0:03:37.666     0:07:24.750     35 425 kbps     45 210 kbps     00:11:00.333    38 355 kbps     00:04:21.875    37 175 kbps     00:04:48.208    184 504 bytes   648 822 bytes   00:04:34.500
3               0:11:02.416     0:03:53.208     35 165 kbps     47 181 kbps     00:13:50.291    39 220 kbps     00:13:47.916    37 755 kbps     00:13:59.166    183 151 bytes   631 542 bytes   00:14:20.708
4               0:14:55.625     0:04:09.958     34 603 kbps     41 449 kbps     00:15:10.374    37 369 kbps     00:15:15.000    36 639 kbps     00:15:10.041    180 226 bytes   518 794 bytes   00:15:05.791
5               0:19:05.583     0:03:27.541     34 731 kbps     45 421 kbps     00:21:29.374    37 812 kbps     00:19:19.833    36 115 kbps     00:21:20.416    180 892 bytes   465 035 bytes   00:20:09.500
6               0:22:33.125     0:03:17.166     35 301 kbps     44 349 kbps     00:24:01.791    38 478 kbps     00:23:30.750    37 188 kbps     00:23:30.833    183 862 bytes   596 876 bytes   00:24:35.250
7               0:25:50.291     0:02:47.958     36 819 kbps     45 125 kbps     00:28:18.374    39 974 kbps     00:28:18.375    39 146 kbps     00:28:18.374    191 768 bytes   685 745 bytes   00:27:05.666
8               0:28:38.250     0:06:50.750     35 921 kbps     44 490 kbps     00:32:50.749    38 706 kbps     00:28:38.250    37 373 kbps     00:31:15.374    187 090 bytes   625 114 bytes   00:32:55.916
9               0:35:29.000     0:04:21.166     36 432 kbps     43 374 kbps     00:35:32.083    38 151 kbps     00:35:32.083    37 524 kbps     00:39:39.208    189 752 bytes   577 926 bytes   00:35:36.208
10              0:39:50.166     0:05:47.000     35 328 kbps     44 061 kbps     00:43:09.583    38 386 kbps     00:43:17.833    37 988 kbps     00:43:12.916    183 998 bytes   695 978 bytes   00:43:42.958
11              0:45:37.166     0:06:48.416     34 999 kbps     46 123 kbps     00:45:48.083    37 517 kbps     00:50:00.291    36 540 kbps     00:50:00.291    182 286 bytes   537 939 bytes   00:46:07.333
12              0:52:25.583     0:05:13.166     34 623 kbps     44 666 kbps     00:55:10.708    37 364 kbps     00:56:37.541    36 287 kbps     00:54:51.416    180 330 bytes   538 649 bytes   00:57:38.750
13              0:57:38.750     0:01:55.291     35 724 kbps     43 210 kbps     00:58:45.333    37 294 kbps     00:58:28.416    36 848 kbps     00:58:21.999    186 061 bytes   686 098 bytes   00:58:45.416
14              0:59:34.041     0:01:49.541     33 974 kbps     42 421 kbps     01:01:21.791    36 711 kbps     01:01:18.583    34 973 kbps     00:59:36.166    176 948 bytes   547 549 bytes   01:00:36.208
15              1:01:23.583     0:05:13.208     35 124 kbps     43 263 kbps     01:06:00.083    38 099 kbps     01:05:09.541    36 388 kbps     01:03:48.624    182 937 bytes   538 017 bytes   01:06:00.333
16              1:06:36.791     0:07:03.625     36 097 kbps     43 033 kbps     01:10:50.208    38 329 kbps     01:11:18.000    37 327 kbps     01:09:52.208    188 005 bytes   673 675 bytes   01:07:29.333
17              1:13:40.416     0:05:21.083     35 803 kbps     45 379 kbps     01:17:45.666    40 170 kbps     01:17:45.666    38 452 kbps     01:17:45.666    186 476 bytes   656 511 bytes   01:15:00.541
18              1:19:01.500     0:06:28.833     35 120 kbps     46 209 kbps     01:23:42.749    39 802 kbps     01:20:59.875    37 458 kbps     01:20:59.874    182 916 bytes   576 176 bytes   01:22:40.916
19              1:25:30.333     0:04:19.750     34 653 kbps     53 122 kbps     01:27:17.416    38 759 kbps     01:27:17.375    37 132 kbps     01:27:17.374    180 483 bytes   720 686 bytes   01:27:17.666
20              1:29:50.083     0:01:58.875     35 760 kbps     45 116 kbps     01:30:54.916    38 170 kbps     01:30:54.916    37 331 kbps     01:31:34.833    186 248 bytes   512 378 bytes   01:30:55.541
21              1:31:48.958     0:02:32.208     34 690 kbps     41 704 kbps     01:33:12.999    36 862 kbps     01:34:09.625    36 229 kbps     01:33:11.916    180 675 bytes   531 052 bytes   01:31:50.583
22              1:34:21.166     0:04:55.791     35 131 kbps     49 294 kbps     01:36:10.333    38 431 kbps     01:36:35.125    36 996 kbps     01:36:21.083    182 975 bytes   532 150 bytes   01:37:29.916
23              1:39:16.958     0:04:17.458     35 597 kbps     41 918 kbps     01:43:28.416    37 219 kbps     01:40:53.750    36 616 kbps     01:41:46.499    185 403 bytes   595 333 bytes   01:40:56.125
24              1:43:34.416     0:04:12.666     17 211 kbps     41 934 kbps     01:47:33.916    28 166 kbps     01:47:17.708    24 528 kbps     01:47:14.583    89 670 bytes    410 345 bytes   01:47:34.041

STREAM DIAGNOSTICS:

File            PID             Type            Codec           Language                Seconds                 Bitrate                 Bytes           Packets
----            ---             ----            -----           --------                --------------          --------------          -------------   -----
00003.M2TS      4113 (0x1011)   0x1B            AVC                                     6467,000                34 581                  27 954 109 320  152 015 785
00003.M2TS      4352 (0x1100)   0x86            DTS-HD MA       eng (English)           6467,000                2 331                   1 884 570 404   11 245 389
00003.M2TS      4353 (0x1101)   0x82            DTS             rus (Russian)           6467,000                754                     609 611 856     3 635 856
00003.M2TS      4354 (0x1102)   0x81            AC3             rus (Russian)           6467,000                448                     362 159 616     2 020 980
00003.M2TS      4355 (0x1103)   0x81            AC3             rus (Russian)           6467,000                448                     362 159 616     2 020 980
00003.M2TS      4356 (0x1104)   0x82            DTS             rus (Russian)           6467,000                1 511                   1 221 508 530   7 281 720
00003.M2TS      4357 (0x1105)   0x85            DTS-HD HR       rus (Russian)           6467,000                2 046                   1 653 967 304   9 700 688
00003.M2TS      4608 (0x1200)   0x90            PGS             rus (Russian)           6467,000                17                      13 539 250      79 307


QUICK SUMMARY:

Disc Title: Vampires.BlueBird
Disc Size: 44 243 406 988 bytes
Protection: AACS
BD-Java: No
Playlist: 00003.MPLS
Size: 36 137 773 056 bytes
Length: 1:47:47
Total Bitrate: 44,70 Mbps
Video: MPEG-4 AVC Video / 34580 kbps / 1080p / 24 fps / 16:9 / High Profile 4.1
Audio: English / DTS-HD Master Audio / 5.1 / 48 kHz / 2331 kbps / 16-bit (DTS Core: 5.1 / 48 kHz / 1509 kbps / 16-bit)
Audio: Russian / DTS-HD Audio / 5.1 / 48 kHz / 2046 kbps / 16-bit (DTS Core: 5.1 / 48 kHz / 1509 kbps / 16-bit)
Audio: Russian / DTS Audio / 5.1 / 48 kHz / 1509 kbps / 16-bit
Audio: Russian / DTS Audio / 5.1 / 48 kHz / 768 kbps / 24-bit
Audio: Russian / Dolby Digital Audio / 5.1 / 48 kHz / 448 kbps
Audio: Russian / Dolby Digital Audio / 5.1 / 48 kHz / 448 kbps
Subtitle: Russian / 16,749 kbps

********************
PLAYLIST: 00001.MPLS
********************

Код:

Total   Video
Title                                                           Codec   Length  Movie Size      Disc Size       Bitrate Bitrate Main Audio Track                          Secondary Audio Track
-----                                                           ------  ------- --------------  --------------  ------- ------- ------------------                        ---------------------
00001.MPLS                                                      MPEG-2  1:35:28 4 121 948 160   44 243 406 988  5,76    4,06    DD AC3 5.1 448Kbps


Код:

DISC INFO:

Disc Title:     Vampires.BlueBird
Disc Size:      44 243 406 988 bytes
Protection:     AACS
BD-Java:        No
BDInfo:         0.5.2

PLAYLIST REPORT:

Name:                   00001.MPLS
Size:                   4 121 948 160 bytes
Length:                 1:35:28 (h:m:s)
Total Bitrate:          5,76 Mbps
Description:

VIDEO:

Codec                   Bitrate             Description
-----                   -------             -----------
MPEG-2 Video            4060 kbps           480i / 29,970 fps / 16:9

AUDIO:

Codec                           Language        Bitrate         Description
-----                           --------        -------         -----------
Dolby Digital Audio             English         448 kbps        5.1 / 48 kHz / 448 kbps
Dolby Digital Audio             Russian         448 kbps        5.1 / 48 kHz / 448 kbps
Dolby Digital Audio             Russian         448 kbps        5.1 / 48 kHz / 448 kbps

SUBTITLES:

Codec                           Language        Bitrate         Description
-----                           --------        -------         -----------
Presentation Graphics           Russian         6,094 kbps

FILES:

Name            Time In         Length          Size            Total Bitrate
----            -------         ------          ----            -------------
00001.M2TS      0:00:00.000     1:35:28.089     4 121 948 160   5 757

CHAPTERS:

Number          Time In         Length          Avg Video Rate  Max 1-Sec Rate  Max 1-Sec Time  Max 5-Sec Rate  Max 5-Sec Time  Max 10Sec Rate  Max 10Sec Time  Avg Frame Size  Max Frame Size  Max Frame Time
------          -------         ------          --------------  --------------  --------------  --------------  --------------  --------------  --------------  --------------  --------------  --------------
1               0:00:00.000     0:03:11.724     4 365 kbps      8 340 kbps      00:02:13.466    7 991 kbps      00:01:59.986    7 656 kbps      00:01:59.119    22 694 bytes    123 417 bytes   00:02:24.177
2               0:03:11.724     0:04:11.851     4 299 kbps      9 948 kbps      00:03:12.191    6 803 kbps      00:03:11.724    5 910 kbps      00:03:11.724    22 409 bytes    117 023 bytes   00:06:22.415
3               0:07:23.576     0:02:34.154     3 299 kbps      6 347 kbps      00:09:54.710    5 060 kbps      00:09:32.572    4 646 kbps      00:09:28.568    17 191 bytes    105 355 bytes   00:09:38.611
4               0:09:57.730     0:02:19.005     4 404 kbps      6 431 kbps      00:12:15.735    5 476 kbps      00:10:04.720    5 247 kbps      00:10:00.132    22 957 bytes    107 773 bytes   00:10:50.182
5               0:12:16.736     0:02:33.786     5 665 kbps      8 997 kbps      00:14:03.542    7 860 kbps      00:13:01.781    7 593 kbps      00:13:34.847    29 519 bytes    112 753 bytes   00:12:52.304
6               0:14:50.522     0:04:35.742     5 119 kbps      8 347 kbps      00:18:08.203    8 201 kbps      00:18:07.202    8 099 kbps      00:18:07.169    26 679 bytes    114 415 bytes   00:19:26.165
7               0:19:26.265     0:05:19.819     4 230 kbps      8 204 kbps      00:20:47.746    8 121 kbps      00:20:47.746    8 033 kbps      00:20:47.746    22 048 bytes    123 573 bytes   00:20:53.752
8               0:24:46.084     0:03:19.699     4 062 kbps      7 645 kbps      00:26:06.231    5 741 kbps      00:26:49.607    5 700 kbps      00:26:49.824    21 171 bytes    108 476 bytes   00:26:59.618
9               0:28:05.784     0:06:48.908     3 694 kbps      9 405 kbps      00:34:27.732    7 569 kbps      00:34:27.281    6 932 kbps      00:34:24.228    19 256 bytes    123 349 bytes   00:29:16.755
10              0:34:54.692     0:02:40.660     4 783 kbps      8 339 kbps      00:37:04.221    7 665 kbps      00:36:33.908    7 184 kbps      00:36:30.187    24 929 bytes    123 416 bytes   00:37:35.253
11              0:37:35.353     0:03:38.685     4 702 kbps      8 283 kbps      00:38:08.419    8 049 kbps      00:37:49.817    7 744 kbps      00:37:48.482    24 508 bytes    124 005 bytes   00:37:54.272
12              0:41:14.038     0:03:40.720     4 884 kbps      8 386 kbps      00:41:45.135    7 141 kbps      00:41:43.551    6 429 kbps      00:43:33.377    25 457 bytes    124 479 bytes   00:41:44.468
13              0:44:54.758     0:02:15.135     3 506 kbps      6 103 kbps      00:47:06.874    5 042 kbps      00:44:55.125    4 484 kbps      00:45:10.057    18 274 bytes    96 868 bytes    00:44:55.659
14              0:47:09.893     0:02:56.175     3 615 kbps      5 811 kbps      00:49:12.416    5 436 kbps      00:49:09.913    5 108 kbps      00:49:07.711    18 843 bytes    115 893 bytes   00:47:12.296
15              0:50:06.069     0:01:49.609     3 473 kbps      4 874 kbps      00:50:08.188    4 323 kbps      00:51:14.004    4 304 kbps      00:51:13.120    18 099 bytes    84 163 bytes    00:51:22.546
16              0:51:55.679     0:04:23.763     3 335 kbps      8 203 kbps      00:54:56.092    6 761 kbps      00:54:54.224    6 316 kbps      00:54:49.219    17 385 bytes    121 588 bytes   00:54:55.759
17              0:56:19.442     0:04:18.224     3 356 kbps      6 168 kbps      01:00:34.030    4 900 kbps      00:58:34.310    4 504 kbps      00:58:32.058    17 494 bytes    107 263 bytes   00:56:23.346
18              1:00:37.667     0:05:13.813     3 271 kbps      7 404 kbps      01:05:32.044    5 678 kbps      01:05:30.710    5 482 kbps      01:05:23.953    17 050 bytes    102 291 bytes   01:01:44.650
19              1:05:51.480     0:03:30.710     3 454 kbps      7 700 kbps      01:09:11.297    5 548 kbps      01:09:11.297    4 827 kbps      01:09:11.297    18 001 bytes    94 736 bytes    01:09:18.604
20              1:09:22.191     0:05:37.336     4 061 kbps      7 712 kbps      01:14:47.883    6 203 kbps      01:13:44.319    6 074 kbps      01:13:44.570    21 171 bytes    121 492 bytes   01:13:31.857
21              1:14:59.528     0:02:00.086     4 419 kbps      6 684 kbps      01:15:16.411    5 821 kbps      01:15:12.541    5 346 kbps      01:16:45.267    23 027 bytes    122 977 bytes   01:15:00.946
22              1:16:59.615     0:01:12.072     4 328 kbps      6 404 kbps      01:17:38.286    5 376 kbps      01:17:38.286    5 119 kbps      01:17:38.286    22 550 bytes    101 608 bytes   01:17:57.589
23              1:18:11.687     0:02:36.155     4 413 kbps      6 717 kbps      01:20:27.822    6 580 kbps      01:20:27.823    6 246 kbps      01:20:26.204    22 999 bytes    122 241 bytes   01:20:30.742
24              1:20:47.843     0:02:05.625     4 347 kbps      8 567 kbps      01:22:48.129    7 694 kbps      01:22:48.129    6 527 kbps      01:22:43.341    22 656 bytes    112 550 bytes   01:22:14.346
25              1:22:53.468     0:04:26.266     4 288 kbps      9 394 kbps      01:26:36.324    6 832 kbps      01:26:11.299    6 501 kbps      01:26:07.045    22 351 bytes    111 701 bytes   01:26:06.578
26              1:27:19.734     0:02:01.621     4 601 kbps      9 012 kbps      01:29:19.737    8 316 kbps      01:29:16.250    6 251 kbps      01:29:11.345    23 981 bytes    123 922 bytes   01:29:21.272
27              1:29:21.356     0:01:22.082     4 300 kbps      8 182 kbps      01:29:29.497    7 997 kbps      01:29:27.578    7 637 kbps      01:29:21.656    22 409 bytes    123 889 bytes   01:29:21.773
28              1:30:43.438     0:04:44.651     3 131 kbps      5 573 kbps      01:35:21.849    4 812 kbps      01:33:21.345    4 713 kbps      01:33:19.977    16 323 bytes    99 395 bytes    01:35:23.601

STREAM DIAGNOSTICS:

File            PID             Type            Codec           Language                Seconds                 Bitrate                 Bytes           Packets
----            ---             ----            -----           --------                --------------          --------------          -------------   -----
00001.M2TS      4113 (0x1011)   0x02            MPEG-2                                  5728,022                4 060                   2 907 130 952   15 879 605
00001.M2TS      4352 (0x1100)   0x81            AC3             eng (English)           5728,022                448                     320 768 000     1 790 000
00001.M2TS      4353 (0x1101)   0x81            AC3             rus (Russian)           5728,022                448                     320 768 000     1 790 000
00001.M2TS      4354 (0x1102)   0x81            AC3             rus (Russian)           5728,022                447                     320 359 424     1 787 720
00001.M2TS      4608 (0x1200)   0x90            PGS             rus (Russian)           5728,022                6                       4 363 643       29 224


QUICK SUMMARY:

Disc Title: Vampires.BlueBird
Disc Size: 44 243 406 988 bytes
Protection: AACS
BD-Java: No
Playlist: 00001.MPLS
Size: 4 121 948 160 bytes
Length: 1:35:28
Total Bitrate: 5,76 Mbps
Video: MPEG-2 Video / 4060 kbps / 480i / 29,970 fps / 16:9
Audio: English / Dolby Digital Audio / 5.1 / 48 kHz / 448 kbps
Audio: Russian / Dolby Digital Audio / 5.1 / 48 kHz / 448 kbps
Audio: Russian / Dolby Digital Audio / 5.1 / 48 kHz / 448 kbps
Subtitle: Russian / 6,094 kbps

********************
PLAYLIST: 00004.MPLS
********************

Код:

Total   Video
Title                                                           Codec   Length  Movie Size      Disc Size       Bitrate Bitrate Main Audio Track                          Secondary Audio Track
-----                                                           ------  ------- --------------  --------------  ------- ------- ------------------                        ---------------------
00004.MPLS                                                      MPEG-2  0:58:35 3 215 966 208   44 243 406 988  7,32    6,71    DD AC3 2.0 192Kbps


Код:

DISC INFO:

Disc Title:     Vampires.BlueBird
Disc Size:      44 243 406 988 bytes
Protection:     AACS
BD-Java:        No
BDInfo:         0.5.2

PLAYLIST REPORT:

Name:                   00004.MPLS
Size:                   3 215 966 208 bytes
Length:                 0:58:35 (h:m:s)
Total Bitrate:          7,32 Mbps
Description:

VIDEO:

Codec                   Bitrate             Description
-----                   -------             -----------
MPEG-2 Video            6713 kbps           576i / 25 fps / 4:3

AUDIO:

Codec                           Language        Bitrate         Description
-----                           --------        -------         -----------
Dolby Digital Audio             English         192 kbps        2.0 / 48 kHz / 192 kbps / Dolby Surround

FILES:

Name            Time In         Length          Size            Total Bitrate
----            -------         ------          ----            -------------
00004.M2TS      0:00:00.000     0:58:35.199     3 215 966 208   7 319

CHAPTERS:

Number          Time In         Length          Avg Video Rate  Max 1-Sec Rate  Max 1-Sec Time  Max 5-Sec Rate  Max 5-Sec Time  Max 10Sec Rate  Max 10Sec Time  Avg Frame Size  Max Frame Size  Max Frame Time
------          -------         ------          --------------  --------------  --------------  --------------  --------------  --------------  --------------  --------------  --------------  --------------
1               0:00:00.000     0:58:35.199     6 713 kbps      8 696 kbps      00:28:32.159    7 971 kbps      00:44:20.159    7 890 kbps      00:44:19.839    33 567 bytes    136 849 bytes   00:54:53.680

STREAM DIAGNOSTICS:

File            PID             Type            Codec           Language                Seconds                 Bitrate                 Bytes           Packets
----            ---             ----            -----           --------                --------------          --------------          -------------   -----
00004.M2TS      4113 (0x1011)   0x02            MPEG-2                                  3515,080                6 714                   2 949 832 549   16 082 830
00004.M2TS      4352 (0x1100)   0x81            AC3             eng (English)           3515,080                192                     84 359 424      549 215


QUICK SUMMARY:

Disc Title: Vampires.BlueBird
Disc Size: 44 243 406 988 bytes
Protection: AACS
BD-Java: No
Playlist: 00004.MPLS
Size: 3 215 966 208 bytes
Length: 0:58:35
Total Bitrate: 7,32 Mbps
Video: MPEG-2 Video / 6713 kbps / 576i / 25 fps / 4:3
Audio: English / Dolby Digital Audio / 2.0 / 48 kHz / 192 kbps / Dolby Surround

********************
PLAYLIST: 00005.MPLS
********************

Код:

Total   Video
Title                                                           Codec   Length  Movie Size      Disc Size       Bitrate Bitrate Main Audio Track                          Secondary Audio Track
-----                                                           ------  ------- --------------  --------------  ------- ------- ------------------                        ---------------------
00005.MPLS                                                      MPEG-2  0:05:53 355 332 096     44 243 406 988  8,04    7,38    DD AC3 2.0 192Kbps


Код:

DISC INFO:

Disc Title:     Vampires.BlueBird
Disc Size:      44 243 406 988 bytes
Protection:     AACS
BD-Java:        No
BDInfo:         0.5.2

PLAYLIST REPORT:

Name:                   00005.MPLS
Size:                   355 332 096 bytes
Length:                 0:05:53 (h:m:s)
Total Bitrate:          8,04 Mbps
Description:

VIDEO:

Codec                   Bitrate             Description
-----                   -------             -----------
MPEG-2 Video            7384 kbps           576i / 25 fps / 4:3

AUDIO:

Codec                           Language        Bitrate         Description
-----                           --------        -------         -----------
Dolby Digital Audio             English         192 kbps        2.0 / 48 kHz / 192 kbps / Dolby Surround

SUBTITLES:

Codec                           Language        Bitrate         Description
-----                           --------        -------         -----------
Presentation Graphics           French          20,492 kbps

FILES:

Name            Time In         Length          Size            Total Bitrate
----            -------         ------          ----            -------------
00005.M2TS      0:00:00.000     0:05:53.400     355 332 096     8 044

CHAPTERS:

Number          Time In         Length          Avg Video Rate  Max 1-Sec Rate  Max 1-Sec Time  Max 5-Sec Rate  Max 5-Sec Time  Max 10Sec Rate  Max 10Sec Time  Avg Frame Size  Max Frame Size  Max Frame Time
------          -------         ------          --------------  --------------  --------------  --------------  --------------  --------------  --------------  --------------  --------------  --------------
1               0:00:00.000     0:05:53.400     7 384 kbps      8 834 kbps      00:04:45.919    8 063 kbps      00:04:43.080    7 932 kbps      00:04:43.760    36 918 bytes    139 669 bytes   00:04:47.599

STREAM DIAGNOSTICS:

File            PID             Type            Codec           Language                Seconds                 Bitrate                 Bytes           Packets
----            ---             ----            -----           --------                --------------          --------------          -------------   -----
00005.M2TS      4113 (0x1011)   0x02            MPEG-2                                  353,320                 7 385                   326 167 906     1 777 835
00005.M2TS      4352 (0x1100)   0x81            AC3             eng (English)           353,320                 192                     8 481 024       55 215
00005.M2TS      4608 (0x1200)   0x90            PGS             fra (French)            353,320                 20                      905 235         5 764


QUICK SUMMARY:

Disc Title: Vampires.BlueBird
Disc Size: 44 243 406 988 bytes
Protection: AACS
BD-Java: No
Playlist: 00005.MPLS
Size: 355 332 096 bytes
Length: 0:05:53
Total Bitrate: 8,04 Mbps
Video: MPEG-2 Video / 7384 kbps / 576i / 25 fps / 4:3
Audio: English / Dolby Digital Audio / 2.0 / 48 kHz / 192 kbps / Dolby Surround
Subtitle: French / 20,492 kbps

********************
PLAYLIST: 00006.MPLS
********************

Код:

Total   Video
Title                                                           Codec   Length  Movie Size      Disc Size       Bitrate Bitrate Main Audio Track                          Secondary Audio Track
-----                                                           ------  ------- --------------  --------------  ------- ------- ------------------                        ---------------------
00006.MPLS                                                      MPEG-2  0:01:34 58 957 824      44 243 406 988  5,00    4,49    DD AC3 2.0 224Kbps


Код:

DISC INFO:

Disc Title:     Vampires.BlueBird
Disc Size:      44 243 406 988 bytes
Protection:     AACS
BD-Java:        No
BDInfo:         0.5.2

PLAYLIST REPORT:

Name:                   00006.MPLS
Size:                   58 957 824 bytes
Length:                 0:01:34 (h:m:s)
Total Bitrate:          5,00 Mbps
Description:

VIDEO:

Codec                   Bitrate             Description
-----                   -------             -----------
MPEG-2 Video            4490 kbps           576i / 25 fps / 16:9

AUDIO:

Codec                           Language        Bitrate         Description
-----                           --------        -------         -----------
Dolby Digital Audio             English         224 kbps        2.0 / 48 kHz / 224 kbps / Dolby Surround

FILES:

Name            Time In         Length          Size            Total Bitrate
----            -------         ------          ----            -------------
00006.M2TS      0:00:00.000     0:01:34.360     58 957 824      4 999

CHAPTERS:

Number          Time In         Length          Avg Video Rate  Max 1-Sec Rate  Max 1-Sec Time  Max 5-Sec Rate  Max 5-Sec Time  Max 10Sec Rate  Max 10Sec Time  Avg Frame Size  Max Frame Size  Max Frame Time
------          -------         ------          --------------  --------------  --------------  --------------  --------------  --------------  --------------  --------------  --------------  --------------
1               0:00:00.000     0:01:34.360     4 490 kbps      7 239 kbps      00:00:34.559    5 805 kbps      00:00:26.680    5 553 kbps      00:00:21.399    22 448 bytes    94 092 bytes    00:00:07.439

STREAM DIAGNOSTICS:

File            PID             Type            Codec           Language                Seconds                 Bitrate                 Bytes           Packets
----            ---             ----            -----           --------                --------------          --------------          -------------   -----
00006.M2TS      4113 (0x1011)   0x02            MPEG-2                                  94,200                  4 497                   52 955 917      289 145
00006.M2TS      4352 (0x1100)   0x81            AC3             eng (English)           94,200                  224                     2 641 408       14 740


QUICK SUMMARY:

Disc Title: Vampires.BlueBird
Disc Size: 44 243 406 988 bytes
Protection: AACS
BD-Java: No
Playlist: 00006.MPLS
Size: 58 957 824 bytes
Length: 0:01:34
Total Bitrate: 5,00 Mbps
Video: MPEG-2 Video / 4490 kbps / 576i / 25 fps / 16:9
Audio: English / Dolby Digital Audio / 2.0 / 48 kHz / 224 kbps / Dolby Surround
[*]Фильм поставлен по одноименному роману Джона Стикли (John Steakley) и снимался на протяжении трех месяцев – со 2 июня по 4 августа 1997 года.

[*]Сценарист Дэн Мазур (Dan Mazur) появляется в титрах только при прокате фильма в Европе, а уже на премьере в США в 1998 году его имя исчезло из списка создателей картины.

[*]В эпизодической роли владельца автомобиля, который насильно отбирает у него Монтойя, снялся американский режиссер и сценарист Фрэнк Дарабонт (Frank Darabont).

[*]Съемки проходили в штате Нью-Мехико (США), в городах Стэнли, Санта-Фэ, Чериллос, Сан-Джулиан Пуэбло и Лас-Вегасе.

[*]Когда Рассел Малкэй и Дольф Лундгрен покинули проект, а ставить фильм взялся Джон Карпентер с Джеймсом Вудсом в главной роли, студия решила урезать бюджет картины на 2/3. Причем это было сделано непосредственно перед самым началом процесса производства фильма, так что сценаристу и режиссеру пришлось в срочном порядке кардинальным образом переделывать сценарий, чтобы уложиться в рамки нового бюджета.

[*]Джон Стикли, автор оригинального романа, после премьеры картины сказал, что фильм содержит большую часть его диалогов и ни одного его сюжетного хода.

[*]Символ на кулоне, который носит Монтойя, - это нордическая руна, означающая «защитник».
pic pic pic pic pic

Этот торрент недоступен для скачивания без регистрации, однако доступен по публичной magnet-ссылке (источники с публичных трекеров). Перед использованием ссылки прочтите, пожалуйста Пользовательское соглашение, а также как можно дольше оставайтесь на раздаче! Для того, чтобы скачать сам торрент-файл (который видит больше источников), а также для того, чтобы поблагодарить релизера, вам необходимо зарегистрироваться. Если регистрироваться лень - вы можете также попробовать скачать релиз по нашим партнерским ссылкам ниже. Кроме того, зарегистрированным пользователям не показывается всплывающая реклама при скачивании.

[underverse.su].t42684.torrent
Трекер: Зарегистрирован   [ 13.08.2014 08:29 ]  

Статус: проверено (by Паукан at 27.08.2014 12:38)
Поблагодарили: 1 человек
Тип торрента: публичный - доступные источники с открытых трекеров: 
Размер: 41,2 GB (занимает 9,41 DVDR, для записи нужно 10 болванок DVDR/RW)
 
 
Похожие темы
Форум Тема Автор Торрент Отв. Посл. сооб.
T Зарубежное кино [DVDRip, Low-Res HDRip, и т.д.] Вампиры / Vampyres (Виктор Мательяно) [2015 г., ужасы, эротика, DVDRip] VO (Хихидок) + Sub (Eng) 90ytr90
11 | 2

0 | 690

20

12.11.2016 05:17

T Зарубежное кино [DVDRip, Low-Res HDRip, и т.д.] Вампиры / Vampyres (Виктор Мательяно) [2015 г., ужасы, эротика, HDRip] MVO 90ytr90
1 | 0

0 | 446

11

30.06.2017 19:47

T Зарубежное кино [HDDVDRip / BDRip / WEB-DL / HDTV 1080/720р] Вампиры / Vampyres (Виктор Мательяно) [2015 г., ужасы, эротика, BDRip 720p] MVO 90ytr90
0 | 0

0 | 463

7

30.06.2017 19:53



Последний раз редактировалось: uzi2009 (15.08.2014 10:53), всего редактировалось 2 раз(а)

uzi2009 Пол:Муж

13-Авг-2014 08:30

Смотрел этот фильм - очень классный фильмец полуился, в от личие от второй части

Яндекс.Метрика powered by Sphinx


В Н И М А Н И Е
Сайт не распространяет и не хранит электронные версии произведений, а лишь бесплатно и без коммерческой выгоды (не требуя взамен платы,
SMS и т.д.) предоставляет доступ к создаваемому пользователями каталогу ссылок на торрент-файлы, которые содержат только списки хеш-сумм.
Убедительная просьба с жалобами обращаться напрямую к пользователю, разместившему торрент файл.

Вверх