Loading...
Error

Игры патриотов / Patriot Games (Филлип Нойс / Phillip Noyce) [1992 г., боевик, триллер, драма, криминал, BDRemux 1080p] MVO + DVO + AVOx3 (Гаврилов, Живов, Пронин)

Статистика раздачи
Размер:  38,77 GB   |    Зарегистрирован:  3 года 10 месяцев   |    Скачан:  1 раз

Полного источника не было: 2 года 5 месяцев

Сидов:  0  |  0 KB/s  ]   Личеров:  0  |  0 KB/s  ]

* - сиды/пиры с внешних источников

   
 
Автор Сообщение

uzi2009 Пол:Муж

15-Авг-2014 11:21

Игры патриотов / Patriot Games

Год выпуска: 1992
Страна: США
Жанр: боевик, триллер, драма, криминал
Продолжительность: 01:56:44
Перевод: Профессиональный (многоголосый, закадровый) CEE
Перевод: Профессиональный (двухголосый, закадровый) Карусель
Перевод: Авторский (одноголосый, закадровый) Андрей Гаврилов
Перевод: Авторский (одноголосый, закадровый) Юрий Живов
Перевод: Авторский (одноголосый, закадровый) Антон Пронин
Субтитры: русские (x2), английские

Режиссер: Филлип Нойс / Phillip Noyce

В ролях: Харрисон Форд, Энн Арчер, Патрик Бергин, Шон Бин, Тора Бирч, Джеймс Фокс, Сэмюэл Л. Джексон, Полли Уолкер, Дж.Е. Фриман, Джеймс Эрл Джонс, Ричард Харрис, Алекс Нортон, Хью Фрайзер, Дэвид Трелфал, Алан Армстронг, Berlinda Tolbert, Хью Росс, Джералд Сим, Пип Торренс, Томас Расселл, Джонатан Райан

Описание: Бывший сотрудник ЦРУ, а ныне профессор военно-морской академии США Джек Райан, находясь в Лондоне с докладом, случайно становится свидетелем террористического акта Ирландской республиканской армии против королевской семьи. Райан предотвращает трагедию, но ирландские террористы грозят отомстить. Опасная угроза нависает над Райаном, его женой и дочерью...

Доп. информация:

Качество: BDRemux
Формат: MKV
Видео: MPEG-4 AVC Video 32954 kbps 1080p / 23.976 fps / 16:9 / High Profile 4.1
Аудио: Dolby Digital Audio Russian 5.1 / 48 kHz / 640 kbps | CEE
Аудио: DTS-HD Master Audio Russian 5.1 / 48 kHz / 4094 kbps / 24-bit (DTS Core: 5.1 / 48 kHz / 1509 kbps / 24-bit) | Карусель
Аудио: DTS Audio Russian 5.1 / 48 kHz / 1510 kbps / 24-bit | Гаврилов
Аудио: DTS-HD Master Audio Russian 5.1 / 48 kHz / 4090 kbps / 24-bit (DTS Core: 5.1 / 48 kHz / 1509 kbps / 24-bit) | Живов
Аудио: Dolby Digital Audio Russian 2.0 / 48 kHz / 192 kbps | Пронин
Аудио: DTS-HD Master Audio English 5.1 / 48 kHz / 4065 kbps / 24-bit (DTS Core: 5.1 / 48 kHz / 1509 kbps / 24-bit)

Цитата:

Дорожка №2-4 получены наложением чистого голоса на центр декодированного Dolby TrueHD.
Гаврилов был не очень хорошего качества, поэтому закодирован в обычный DTS.
General
Unique ID : 180172662961888024348459003678886650439 (0x878BFE2000CCBCCEB73BD6D14992E247)
Complete name : G:\bluray\Patriot.Games.1992.1080p.Bluray.AVC.Remux.mkv
Format : Matroska
Format version : Version 2
File size : 38.8 GiB
Duration : 1h 56mn
Overall bit rate : 47.6 Mbps
Movie name : Patriot.Games.1992.1080p.Bluray.AVC.Remux
Encoded date : UTC 2012-03-08 17:12:38
Writing application : mkvmerge v4.9.1 ('Ich will') сборка от Jul 11 2011 23:53:15
Writing library : libebml v1.2.1 + libmatroska v1.1.1

Video
ID : 1
Format : AVC
Format/Info : Advanced Video Codec
Format profile : High@L4.1
Format settings, CABAC : Yes
Format settings, ReFrames : 2 frames
Codec ID : V_MPEG4/ISO/AVC
Duration : 1h 56mn
Bit rate mode : Variable
Bit rate : 39.2 Mbps
Width : 1 920 pixels
Height : 1 080 pixels
Display aspect ratio : 16:9
Frame rate : 23.976 fps
Color space : YUV
Chroma subsampling : 4:2:0
Bit depth : 8 bits
Scan type : Progressive
Bits/(Pixel*Frame) : 0.789
Stream size : 32.0 GiB (82%)
Title : uralmix

Audio #1
ID : 2
Format : AC-3
Format/Info : Audio Coding 3
Mode extension : CM (complete main)
Codec ID : A_AC3
Duration : 1h 56mn
Bit rate mode : Constant
Bit rate : 640 Kbps
Channel(s) : 6 channels
Channel positions : Front: L C R, Side: L R, LFE
Sampling rate : 48.0 KHz
Bit depth : 16 bits
Compression mode : Lossy
Stream size : 534 MiB (1%)
Title : CEE
Language : Russian

Audio #2
ID : 3
Format : DTS
Format/Info : Digital Theater Systems
Format profile : MA / Core
Codec ID : A_DTS
Duration : 1h 56mn
Bit rate mode : Variable
Bit rate : 1 666 Kbps / 1 510 Kbps
Channel(s) : 6 channels
Channel positions : Front: L C R, Side: L R, LFE
Sampling rate : 48.0 KHz
Bit depth : 24 bits
Compression mode : Lossless / Lossy
Title : Карусель
Language : Russian

Audio #3
ID : 4
Format : DTS
Format/Info : Digital Theater Systems
Codec ID : A_DTS
Duration : 1h 56mn
Bit rate mode : Constant
Bit rate : 1 510 Kbps
Channel(s) : 6 channels
Channel positions : Front: L C R, Side: L R, LFE
Sampling rate : 48.0 KHz
Bit depth : 24 bits
Compression mode : Lossy
Stream size : 1.23 GiB (3%)
Title : Андрей Гаврилов
Language : Russian

Audio #4
ID : 5
Format : DTS
Format/Info : Digital Theater Systems
Format profile : MA / Core
Codec ID : A_DTS
Duration : 1h 56mn
Bit rate mode : Variable
Bit rate : 1 813 Kbps / 1 510 Kbps
Channel(s) : 6 channels
Channel positions : Front: L C R, Side: L R, LFE
Sampling rate : 48.0 KHz
Bit depth : 24 bits
Compression mode : Lossless / Lossy
Title : Юрий Живов
Language : Russian

Audio #5
ID : 6
Format : AC-3
Format/Info : Audio Coding 3
Mode extension : CM (complete main)
Codec ID : A_AC3
Duration : 1h 56mn
Bit rate mode : Constant
Bit rate : 192 Kbps
Channel(s) : 2 channels
Channel positions : Front: L R
Sampling rate : 48.0 KHz
Bit depth : 16 bits
Compression mode : Lossy
Stream size : 160 MiB (0%)
Title : Антон Пронин
Language : Russian

Audio #6
ID : 7
Format : DTS
Format/Info : Digital Theater Systems
Format profile : MA / Core
Codec ID : A_DTS
Duration : 1h 56mn
Bit rate mode : Variable
Bit rate : 1 561 Kbps / 1 510 Kbps
Channel(s) : 6 channels
Channel positions : Front: L C R, Side: L R, LFE
Sampling rate : 48.0 KHz
Bit depth : 24 bits
Compression mode : Lossless / Lossy
Language : English

Text #1
ID : 8
Format : UTF-8
Codec ID : S_TEXT/UTF8
Codec ID/Info : UTF-8 Plain Text
Title : CEE
Language : Russian

Text #2
ID : 9
Format : UTF-8
Codec ID : S_TEXT/UTF8
Codec ID/Info : UTF-8 Plain Text
Title : Карусель
Language : Russian

Text #3
ID : 10
Format : UTF-8
Codec ID : S_TEXT/UTF8
Codec ID/Info : UTF-8 Plain Text
Language : English

Menu
00:00:00.000 : en:00:00:00.000
00:02:36.448 : en:00:02:36.448
00:05:47.722 : en:00:05:47.722
00:11:47.040 : en:00:11:47.040
00:13:28.558 : en:00:13:28.558
00:19:57.196 : en:00:19:57.196
00:24:59.873 : en:00:24:59.873
00:27:54.298 : en:00:27:54.298
00:33:56.493 : en:00:33:56.493
00:38:00.737 : en:00:38:00.737
00:40:04.277 : en:00:40:04.277
00:51:17.324 : en:00:51:17.324
00:57:09.343 : en:00:57:09.343
01:04:10.096 : en:01:04:10.096
01:10:52.081 : en:01:10:52.081
01:15:46.834 : en:01:15:46.834
01:19:18.128 : en:01:19:18.128
01:27:10.434 : en:01:27:10.434
01:31:42.664 : en:01:31:42.664
01:44:04.905 : en:01:44:04.905
01:51:14.501 : en:01:51:14.501
01:52:45.175 : en:01:52:45.175
pic pic pic pic pic

Этот торрент недоступен для скачивания без регистрации, однако доступен по публичной magnet-ссылке (источники с публичных трекеров). Перед использованием ссылки прочтите, пожалуйста Пользовательское соглашение, а также как можно дольше оставайтесь на раздаче! Для того, чтобы скачать сам торрент-файл (который видит больше источников), а также для того, чтобы поблагодарить релизера, вам необходимо зарегистрироваться. Если регистрироваться лень - вы можете также попробовать скачать релиз по нашим партнерским ссылкам ниже. Кроме того, зарегистрированным пользователям не показывается всплывающая реклама при скачивании.

[underverse.su].t42770.torrent
Трекер: Зарегистрирован   [ 15.08.2014 11:21 ]  

Статус: проверено (by Паукан at 27.08.2014 12:41)
Поблагодарили: пока никто не поблагодарил...
Тип торрента: публичный - доступные источники с открытых трекеров: 
Размер: 38,77 GB (занимает 8,86 DVDR, для записи нужно 9 болванок DVDR/RW)
 
 
Похожие темы
Форум Тема Автор Торрент Отв. Посл. сооб.
Зарубежное кино [DVDRip, Low-Res HDRip, и т.д.] Игры патриотов / Patriot Games (Филлип Нойс) [1992 г., боевик, триллер, драма, криминал, BDRip-AVC] MVO + 3xAVO + Original + DVO garry
1 | 1

0 | 991

11

09.03.2013 20:57


Яндекс.Метрика powered by Sphinx


В Н И М А Н И Е
Сайт не распространяет и не хранит электронные версии произведений, а лишь бесплатно и без коммерческой выгоды (не требуя взамен платы,
SMS и т.д.) предоставляет доступ к создаваемому пользователями каталогу ссылок на торрент-файлы, которые содержат только списки хеш-сумм.
Убедительная просьба с жалобами обращаться напрямую к пользователю, разместившему торрент файл.

Вверх