Loading...
Error

(Score) Бэтмен: Нападение на Аркхэм / Batman: Assault on Arkham (by Robert J. Kral) (2014) [FLAC (Tracks+.CUE), lossless]

Статистика раздачи
Размер:  334 MB   |    Зарегистрирован:  1 год 3 месяца   |    Скачан:  1 раз
Сидов:  2  |  0 KB/s  ]   Личеров:  0  |  0 KB/s  ]

* - сиды/пиры с внешних источников

   
 
Автор Сообщение

garry Пол:Муж

20-Окт-2014 09:19

Бэтмен: Нападение на Аркхэм / Batman: Assault on Arkham (by Robert J. Kral)

Жанр: Score
Год выпуска: 2014
Производитель диска: La-La Land Records LLLCD 1316
Аудиокодек: FLAC
Тип рипа: Tracks+.CUE
Битрейт аудио: lossless
Продолжительность: 00:57:55

Треклист:

01 - Nigma's Confrontation / It's Batman
02 - Criminal Montage
03 - Task Force Indoctrination
04 - Dropping Down
05 - Gearing Up / Beer Room Challenge
06 - Yahtzee!
07 - Harley Arrested to Arkham
08 - Infiltrating Arkham and Joker Assault
09 - Killer Frost's Kiss and Black Spider's Microwave
10 - Harley Bait and King Shark's Work
11 - Suicide Squad in the Big House
12 - Batman's Gotham and Property Room Access
13 - Batman Fights Suicide Squad
14 - Riddler Proposes a Cure
15 - Joker's Out / Suicide Squad vs SCU
16 - Shocking Solution
17 - Joker Attacks Batman
18 - Prisoners Released
19 - Chopper Fight / Poison Ivy / The Batplane
20 - Chopper Crash
21 - Harley's Rage
22 - Final Confrontations
23 - Batman: Assault on Arkham End Credits
Exact Audio Copy V1.0 beta 3 from 29. August 2011

EAC extraction logfile from 8. September 2014, 22:04

Robert J. Kral / Batman: Assault on Arkham

Used drive : PLDS DVD+-RW DH-24AWS Adapter: 0 ID: 0

Read mode : Secure
Utilize accurate stream : Yes
Defeat audio cache : Yes
Make use of C2 pointers : No

Read offset correction : 48
Overread into Lead-In and Lead-Out : No
Fill up missing offset samples with silence : Yes
Delete leading and trailing silent blocks : No
Null samples used in CRC calculations : Yes
Used interface : Native Win32 interface for Win NT & 2000
Gap handling : Appended to previous track

Used output format : User Defined Encoder
Selected bitrate : 1024 kBit/s
Quality : High
Add ID3 tag : No
Command line compressor : C:\Program Files (x86)\Exact Audio Copy\Flac\flac.exe
Additional command line options : -8 -V -T "ARTIST=%artist%" -T "TITLE=%title%" -T "ALBUM=%albumtitle%" -T "DATE=%year%" -T "TRACKNUMBER=%tracknr%" -T "GENRE=%genre%" -T "PERFORMER=%albuminterpret%" -T "COMPOSER=%composer%" %haslyrics%--tag-from-file=LYRICS="%lyricsfile%"%haslyrics% -T "ALBUMARTIST=%albumartist%" -T "DISCNUMBER=%cdnumber%" -T "TOTALDISCS=%totalcds%" -T "TOTALTRACKS=%numtracks%" -T "COMMENT=%comment%" %source% -o %dest%

TOC of the extracted CD

Track | Start | Length | Start sector | End sector
---------------------------------------------------------
1 | 0:00.00 | 3:12.43 | 0 | 14442
2 | 3:12.43 | 3:08.01 | 14443 | 28543
3 | 6:20.44 | 2:43.42 | 28544 | 40810
4 | 9:04.11 | 2:01.73 | 40811 | 49958
5 | 11:06.09 | 1:53.28 | 49959 | 58461
6 | 12:59.37 | 1:06.73 | 58462 | 63484
7 | 14:06.35 | 3:03.36 | 63485 | 77245
8 | 17:09.71 | 5:34.72 | 77246 | 102367
9 | 22:44.68 | 2:01.67 | 102368 | 111509
10 | 24:46.60 | 1:29.71 | 111510 | 118255
11 | 26:16.56 | 3:46.70 | 118256 | 135275
12 | 30:03.51 | 3:01.07 | 135276 | 148857
13 | 33:04.58 | 2:13.74 | 148858 | 158906
14 | 35:18.57 | 1:16.34 | 158907 | 164640
15 | 36:35.16 | 3:36.65 | 164641 | 180905
16 | 40:12.06 | 2:26.70 | 180906 | 191925
17 | 42:39.01 | 1:42.62 | 191926 | 199637
18 | 44:21.63 | 2:47.66 | 199638 | 212228
19 | 47:09.54 | 2:05.28 | 212229 | 221631
20 | 49:15.07 | 2:26.42 | 221632 | 232623
21 | 51:41.49 | 0:59.05 | 232624 | 237053
22 | 52:40.54 | 2:10.06 | 237054 | 246809
23 | 54:50.60 | 3:04.72 | 246810 | 260681

Track 1

Filename H:\Robert J. Kral - Batman - Assault on Arkham (2014) - FLAC\01 - Nigma's Confrontation,It's Batman.wav

Pre-gap length 0:00:02.00

Peak level 100.0 %
Extraction speed 2.6 X
Track quality 99.9 %
Test CRC B3614580
Copy CRC B3614580
Track not present in AccurateRip database
Copy OK

Track 2

Filename H:\Robert J. Kral - Batman - Assault on Arkham (2014) - FLAC\02 - Criminal Montage.wav

Pre-gap length 0:00:02.00

Peak level 96.1 %
Extraction speed 4.9 X
Track quality 100.0 %
Test CRC 3A706D3C
Copy CRC 3A706D3C
Track not present in AccurateRip database
Copy OK

Track 3

Filename H:\Robert J. Kral - Batman - Assault on Arkham (2014) - FLAC\03 - Task Force Indoctrination.wav

Pre-gap length 0:00:02.00

Peak level 99.9 %
Extraction speed 5.1 X
Track quality 100.0 %
Test CRC 18BE2F97
Copy CRC 18BE2F97
Track not present in AccurateRip database
Copy OK

Track 4

Filename H:\Robert J. Kral - Batman - Assault on Arkham (2014) - FLAC\04 - Dropping Down.wav

Pre-gap length 0:00:02.00

Peak level 99.0 %
Extraction speed 5.0 X
Track quality 100.0 %
Test CRC 81E8236E
Copy CRC 81E8236E
Track not present in AccurateRip database
Copy OK

Track 5

Filename H:\Robert J. Kral - Batman - Assault on Arkham (2014) - FLAC\05 - Gearing Up,Beer Room Challenge.wav

Pre-gap length 0:00:02.00

Peak level 93.4 %
Extraction speed 5.1 X
Track quality 100.0 %
Test CRC E110C456
Copy CRC E110C456
Track not present in AccurateRip database
Copy OK

Track 6

Filename H:\Robert J. Kral - Batman - Assault on Arkham (2014) - FLAC\06 - Welcome Back Cowboy!.wav

Pre-gap length 0:00:02.00

Peak level 91.8 %
Extraction speed 4.5 X
Track quality 100.0 %
Test CRC 00FF4227
Copy CRC 00FF4227
Track not present in AccurateRip database
Copy OK

Track 7

Filename H:\Robert J. Kral - Batman - Assault on Arkham (2014) - FLAC\07 - Harley Arrested to Arkham.wav

Pre-gap length 0:00:02.00

Peak level 100.0 %
Extraction speed 6.0 X
Track quality 100.0 %
Test CRC 74100012
Copy CRC 74100012
Track not present in AccurateRip database
Copy OK

Track 8

Filename H:\Robert J. Kral - Batman - Assault on Arkham (2014) - FLAC\08 - Infiltrating Arkham & Joker Assault.wav

Pre-gap length 0:00:02.00

Peak level 99.7 %
Extraction speed 4.8 X
Track quality 99.9 %
Test CRC 6E94C1B6
Copy CRC 6E94C1B6
Track not present in AccurateRip database
Copy OK

Track 9

Filename H:\Robert J. Kral - Batman - Assault on Arkham (2014) - FLAC\09 - Killer Frost's Kiss & Black Spider's Microwave.wav

Pre-gap length 0:00:02.00

Peak level 85.3 %
Extraction speed 6.2 X
Track quality 100.0 %
Test CRC 3A2F158E
Copy CRC 3A2F158E
Track not present in AccurateRip database
Copy OK

Track 10

Filename H:\Robert J. Kral - Batman - Assault on Arkham (2014) - FLAC\10 - Harley Bait & King Shark's Work.wav

Pre-gap length 0:00:02.00

Peak level 99.6 %
Extraction speed 2.5 X
Track quality 99.8 %
Test CRC 7D608640
Copy CRC 7D608640
Track not present in AccurateRip database
Copy OK

Track 11

Filename H:\Robert J. Kral - Batman - Assault on Arkham (2014) - FLAC\11 - Suicide Squad in the Big House.wav

Pre-gap length 0:00:02.00

Peak level 99.7 %
Extraction speed 7.3 X
Track quality 100.0 %
Test CRC EBD97256
Copy CRC EBD97256
Track not present in AccurateRip database
Copy OK

Track 12

Filename H:\Robert J. Kral - Batman - Assault on Arkham (2014) - FLAC\12 - Batman's Gotham & Property Room Access.wav

Pre-gap length 0:00:02.00

Peak level 99.8 %
Extraction speed 7.3 X
Track quality 100.0 %
Test CRC 591CB297
Copy CRC 591CB297
Track not present in AccurateRip database
Copy OK

Track 13

Filename H:\Robert J. Kral - Batman - Assault on Arkham (2014) - FLAC\13 - Batman Fights Suicide Squad.wav

Pre-gap length 0:00:02.00

Peak level 98.3 %
Extraction speed 7.0 X
Track quality 100.0 %
Test CRC 38F2C4DD
Copy CRC 38F2C4DD
Track not present in AccurateRip database
Copy OK

Track 14

Filename H:\Robert J. Kral - Batman - Assault on Arkham (2014) - FLAC\14 - Riddler Proposes a Cure.wav

Pre-gap length 0:00:02.00

Peak level 99.7 %
Extraction speed 6.1 X
Track quality 100.0 %
Test CRC B7331591
Copy CRC B7331591
Track not present in AccurateRip database
Copy OK

Track 15

Filename H:\Robert J. Kral - Batman - Assault on Arkham (2014) - FLAC\15 - Joker's Out,Suicide Squad vs. SCU.wav

Pre-gap length 0:00:02.00

Peak level 99.7 %
Extraction speed 8.0 X
Track quality 100.0 %
Test CRC 5091534D
Copy CRC 5091534D
Track not present in AccurateRip database
Copy OK

Track 16

Filename H:\Robert J. Kral - Batman - Assault on Arkham (2014) - FLAC\16 - Shocking Solutions.wav

Pre-gap length 0:00:02.00

Peak level 99.9 %
Extraction speed 7.6 X
Track quality 100.0 %
Test CRC E01F33C9
Copy CRC E01F33C9
Track not present in AccurateRip database
Copy OK

Track 17

Filename H:\Robert J. Kral - Batman - Assault on Arkham (2014) - FLAC\17 - Joker Attacks Batman.wav

Pre-gap length 0:00:02.00

Peak level 99.3 %
Extraction speed 7.1 X
Track quality 100.0 %
Test CRC 10EE28AA
Copy CRC 10EE28AA
Track not present in AccurateRip database
Copy OK

Track 18

Filename H:\Robert J. Kral - Batman - Assault on Arkham (2014) - FLAC\18 - Prisoners Released.wav

Pre-gap length 0:00:02.00

Peak level 99.7 %
Extraction speed 8.1 X
Track quality 100.0 %
Test CRC 831488ED
Copy CRC 831488ED
Track not present in AccurateRip database
Copy OK

Track 19

Filename H:\Robert J. Kral - Batman - Assault on Arkham (2014) - FLAC\19 - Chopper Fight,Poison Ivy,The Batplane.wav

Pre-gap length 0:00:02.00

Peak level 99.2 %
Extraction speed 7.9 X
Track quality 100.0 %
Test CRC 4C782110
Copy CRC 4C782110
Track not present in AccurateRip database
Copy OK

Track 20

Filename H:\Robert J. Kral - Batman - Assault on Arkham (2014) - FLAC\20 - Chopper Crash.wav

Pre-gap length 0:00:02.00

Peak level 99.0 %
Extraction speed 8.2 X
Track quality 100.0 %
Test CRC 85E37036
Copy CRC 85E37036
Track not present in AccurateRip database
Copy OK

Track 21

Filename H:\Robert J. Kral - Batman - Assault on Arkham (2014) - FLAC\21 - Harley's Rage.wav

Pre-gap length 0:00:02.00

Peak level 99.9 %
Extraction speed 2.2 X
Track quality 99.8 %
Test CRC B17024B3
Copy CRC B17024B3
Track not present in AccurateRip database
Copy OK

Track 22

Filename H:\Robert J. Kral - Batman - Assault on Arkham (2014) - FLAC\22 - Final Confrontation.wav

Pre-gap length 0:00:02.00

Peak level 99.5 %
Extraction speed 8.2 X
Track quality 100.0 %
Test CRC 1EF7BAB7
Copy CRC 1EF7BAB7
Track not present in AccurateRip database
Copy OK

Track 23

Filename H:\Robert J. Kral - Batman - Assault on Arkham (2014) - FLAC\23 - End Credits.wav

Pre-gap length 0:00:02.00

Peak level 99.6 %
Extraction speed 4.9 X
Track quality 99.9 %
Test CRC 294D437D
Copy CRC 294D437D
Track not present in AccurateRip database
Copy OK

None of the tracks are present in the AccurateRip database

No errors occurred

End of status report

---- CUETools DB Plugin V2.1.3

[CTDB TOCID: SIV8pjh0qCemVYkoxH1jIP01Di0-] disk not present in database, Submit result: SIV8pjh0qCemVYkoxH1jIP01Di0- has been uploaded

==== Log checksum 4CBEBCF25D7F8E42ECFDA0DCC792117100CD7AEA6555FD586AFEF8526ED278EA ====
pic pic pic
Для увеличения картинки щелкните мышкой по превью

Этот торрент недоступен для скачивания без регистрации, однако доступен по публичной magnet-ссылке (источники с публичных трекеров). Перед использованием ссылки прочтите, пожалуйста Пользовательское соглашение, а также как можно дольше оставайтесь на раздаче! Для того, чтобы скачать сам торрент-файл (который видит больше источников), а также для того, чтобы поблагодарить релизера, вам необходимо зарегистрироваться. Если регистрироваться лень - вы можете также попробовать скачать релиз по нашим партнерским ссылкам ниже. Кроме того, зарегистрированным пользователям не показывается всплывающая реклама при скачивании.

[underverse.me].t45292.torrent
Трекер: Зарегистрирован   [ 08.03.2017 10:36 ]  

Статус: проверено (by garry at 08.03.2017 10:49)
Поблагодарили: пока никто не поблагодарил...
Тип торрента: публичный - доступные источники с открытых трекеров: 
Размер: 334 MB (занимает 0,07 DVDR, для записи нужно 1 болванка DVDR/RW)
 
 
Похожие темы
Форум Тема Автор Торрент Отв. Посл. сооб.
OST & Score - Movie (Score) Бэтмен: Начало | Темный рыцарь | Возрождение легенды / Batman Begins | The Dark Knight | Rises (by Hans Zimmer and James Newton Howard) (2005-2012) [iTunes AAC M4A, 256 kbps VBR] Web garry
2 | 0

0 | 2298

0

13.07.2012 18:27

OST & Score - Movie (Score) Бэтмен: Отвага и смелость / Batman: The Brave and the Bold (by Kristopher Carter, Lolita Ritmanis and Michael McCuistion) (2014 (2008-2011)) [MP3, 320 kbps] garry
2 | 0

0 | 1614

1

13.02.2014 18:49

OST & Score - Movie (Score) Бэтмен против Супермена: На заре справедливости | Лига справедливости / Batman v Superman: Dawn of Justice [Deluxe Edition] | Justice League (by Hans Zimmer, Junkie XL, Danny Elfman)... garry
2 | 0

0 | 1359

0

18.03.2016 19:46

OST & Score Movie, TV Show & Series, Game (Lossless) (Score) Бэтмен: Под колпаком / Batman: Under the Red Hood (by Christopher Drake) (2010) [FLAC (Tracks+.CUE), lossless] garry
2 | 0

0 | 2245

0

18.11.2010 12:15

# OST & Score Movie, TV Show & Series, Game (Lossless) (Score) Бэтмен | возвращается | навсегда / Batman | Returns | Forever (by Danny Elfman, Elliot Goldenthal) (1989-2012 (1989-1995)) [FLAC (Tracks+.CUE), lossless] garry
2 | 0

0 | 2516

0

10.01.2012 02:18

# OST & Score Movie, TV Show & Series, Game (Lossless) (Score) Бэтмен / Batman: The Animated Series, Volume 1-4 (by Shirley Walker, Lolita Ritmanis and Michael McCuistion) (2008-2016 (1992-1993)) [FLAC (Tracks+.CUE), lossless] garry
2 | 0

0 | 3868

0

03.11.2012 19:18

OST & Score Movie, TV Show & Series, Game (Lossless) (Score) Бэтмен: Маска Фантазма / Batman: Mask of the Phantasm (by Shirley Walker) (1993-2009) [FLAC (Tracks+.CUE), lossless] garry
2 | 0

0 | 1442

0

11.10.2014 09:22

OST & Score Movie, TV Show & Series, Game (Lossless) (Score) Бэтмен будущего: Возвращение Джокера / Batman Beyond: Return of the Joker (by Kristopher Carter) (2000) [FLAC (Tracks+.CUE), lossless] garry
2 | 0

0 | 1155

1

08.05.2015 13:56

OST & Score Movie, TV Show & Series, Game (Lossless) (Score) Бэтмен и тайна женщины-летучей мыши / Batman: Mystery of the Batwoman (by Lolita Ritmanis) (2016 (2003)) [FLAC (Tracks+.CUE), lossless] garry
3 | 0

0 | 1063

1

25.07.2016 10:29

OST & Score Movie, TV Show & Series, Game (Lossless) (Score) Бэтмен будущего / Batman Beyond (by Kristopher Carter, Shirley Walker, Lolita Ritmanis, Michael McCuistion) (1999) [FLAC (Tracks+.CUE), lossless] garry
2 | 0

0 | 594

1

04.03.2017 13:04



Последний раз редактировалось: garry (08.03.2017 10:49), всего редактировалось 3 раз(а)

Яндекс.Метрика powered by Sphinx


В Н И М А Н И Е
Сайт не распространяет и не хранит электронные версии произведений, а лишь бесплатно и без коммерческой выгоды (не требуя взамен платы,
SMS и т.д.) предоставляет доступ к создаваемому пользователями каталогу ссылок на торрент-файлы, которые содержат только списки хеш-сумм.
Убедительная просьба с жалобами обращаться напрямую к пользователю, разместившему торрент файл.

Вверх