Loading...
Error

(Jazz, Rock, Pop Rock) Steely Dan - Aja (1984) [FLAC (Tracks+.CUE), Lossless]

Статистика раздачи
Размер:  215 MB   |    Зарегистрирован:  3 года 5 месяцев   |    Скачан:  9 раз
Сидов:  1  |  0 KB/s  ]   Личеров:  0  |  0 KB/s  ]

* - сиды/пиры с внешних источников

   
 
Автор Сообщение

Бишеп Пол:Муж

01-Фев-2015 14:07

Steely Dan - Aja

Жанр: Jazz, Rock, Pop Rock
Год выпуска: 1984
Источник: CD
Производитель диска: MCA Records VDP-27
Аудиокодек: FLAC
Тип рипа: Tracks+.CUE
Битрейт аудио: lossless
Продолжительность: 00:39:43


Треклист:
01. Black Cow
02. Aja
03. Deacon Blues
04. Peg
05. Home At Last
06. I Got The News
07. Josie

Exact Audio Copy V1.0 beta 3 from 29. August 2011

EAC extraction logfile from 7. May 2014, 18:22

Steely Dan / Aja [Victor Musical Industries VDP-27]

Used drive : HL-DT-STDVDRAM GSA-H10N Adapter: 0 ID: 0

Read mode : Secure
Utilize accurate stream : Yes
Defeat audio cache : Yes
Make use of C2 pointers : No

Read offset correction : 667
Overread into Lead-In and Lead-Out : No
Fill up missing offset samples with silence : Yes
Delete leading and trailing silent blocks : No
Null samples used in CRC calculations : Yes
Used interface : Native Win32 interface for Win NT & 2000
Gap handling : Appended to previous track

Used output format : User Defined Encoder
Selected bitrate : 128 kBit/s
Quality : High
Add ID3 tag : No
Command line compressor : D:\Program Files\FLAC\flac.exe
Additional command line options : -V -8 -T "ARTIST=%artist%" -T "TITLE=%title%" -T "ALBUM=%albumtitle%" -T "DATE=%year%" -T "TRACKNUMBER=%tracknr%" -T "GENRE=%genre%" %source%

TOC of the extracted CD

Track | Start | Length | Start sector | End sector
---------------------------------------------------------
1 | 0:00.37 | 5:08.14 | 37 | 23150
2 | 5:08.51 | 7:53.69 | 23151 | 58694
3 | 13:02.45 | 7:34.26 | 58695 | 92770
4 | 20:36.71 | 3:56.42 | 92771 | 110512
5 | 24:33.38 | 5:32.34 | 110513 | 135446
6 | 30:05.72 | 5:05.35 | 135447 | 158356
7 | 35:11.32 | 4:32.58 | 158357 | 178814

Track 1

Filename D:\Download\Dekodovane audio\01 - Black Cow.wav

Pre-gap length 0:00:02.49

Peak level 100.0 %
Extraction speed 2.7 X
Track quality 100.0 %
Test CRC 467F8DCE
Copy CRC 467F8DCE
Cannot be verified as accurate (confidence 1) [D018EA71], AccurateRip returned [EA968462] (AR v2)
Copy OK

Track 2

Filename D:\Download\Dekodovane audio\02 - Aja.wav

Pre-gap length 0:00:01.14

Peak level 89.5 %
Extraction speed 3.3 X
Track quality 100.0 %
Test CRC 5C283C34
Copy CRC 5C283C34
Cannot be verified as accurate (confidence 1) [194DF0F1], AccurateRip returned [18B3A785] (AR v2)
Copy OK

Track 3

Filename D:\Download\Dekodovane audio\03 - Deacon Blues.wav

Pre-gap length 0:00:00.40

Peak level 95.8 %
Extraction speed 3.7 X
Track quality 100.0 %
Test CRC 46873ED1
Copy CRC 46873ED1
Cannot be verified as accurate (confidence 1) [325EEC59], AccurateRip returned [4E05FDA9] (AR v2)
Copy OK

Track 4

Filename D:\Download\Dekodovane audio\04 - Peg.wav

Pre-gap length 0:00:02.61

Peak level 100.0 %
Extraction speed 3.7 X
Track quality 100.0 %
Test CRC C7169E76
Copy CRC C7169E76
Cannot be verified as accurate (confidence 1) [815F6CDC], AccurateRip returned [4FCEB8BB] (AR v2)
Copy OK

Track 5

Filename D:\Download\Dekodovane audio\05 - Home At Last.wav

Pre-gap length 0:00:01.48

Peak level 100.0 %
Extraction speed 4.1 X
Track quality 100.0 %
Test CRC 98E7CAEB
Copy CRC 98E7CAEB
Cannot be verified as accurate (confidence 1) [4A8AA13D], AccurateRip returned [7122B37E] (AR v2)
Copy OK

Track 6

Filename D:\Download\Dekodovane audio\06 - I Got The News.wav

Pre-gap length 0:00:01.73

Peak level 96.5 %
Extraction speed 4.3 X
Track quality 100.0 %
Test CRC DDF336F6
Copy CRC DDF336F6
Cannot be verified as accurate (confidence 1) [385BB7B5], AccurateRip returned [8F5CAA8E] (AR v2)
Copy OK

Track 7

Filename D:\Download\Dekodovane audio\07 - Josie.wav

Pre-gap length 0:00:03.49

Peak level 97.0 %
Extraction speed 4.5 X
Track quality 100.0 %
Test CRC 0AF703E0
Copy CRC 0AF703E0
Cannot be verified as accurate (confidence 1) [1595D90E], AccurateRip returned [7470CF5C] (AR v2)
Copy OK

No tracks could be verified as accurate
You may have a different pressing from the one(s) in the database

No errors occurred

End of status report

---- CUETools DB Plugin V2.1.4

[CTDB TOCID: iKosZqseif8LXsTE7er9PobTPX8-] disk not present in database
Submit result: iKosZqseif8LXsTE7er9PobTPX8- has been uploaded

==== Log checksum 052CAC3CCDDAF92CDF0FE2D3A8F8AE613871E802B6519F044A1A31E4079E63AE ====

REM GENRE Jazz/Rock
REM DATE 1977
REM DISCID 4F095007
REM COMMENT "ExactAudioCopy v1.0b3"
PERFORMER "Steely Dan"
TITLE "Aja [Victor Musical Industries VDP-27]"
FILE "01 - Black Cow.wav" WAVE
TRACK 01 AUDIO
TITLE "Black Cow"
PERFORMER "Steely Dan"
PREGAP 00:00:37
INDEX 01 00:00:00
TRACK 02 AUDIO
TITLE "Aja"
PERFORMER "Steely Dan"
INDEX 00 05:07:03
FILE "02 - Aja.wav" WAVE
INDEX 01 00:00:00
TRACK 03 AUDIO
TITLE "Deacon Blues"
PERFORMER "Steely Dan"
INDEX 00 07:53:39
FILE "03 - Deacon Blues.wav" WAVE
INDEX 01 00:00:00
TRACK 04 AUDIO
TITLE "Peg"
PERFORMER "Steely Dan"
INDEX 00 07:31:55
FILE "04 - Peg.wav" WAVE
INDEX 01 00:00:00
TRACK 05 AUDIO
TITLE "Home At Last"
PERFORMER "Steely Dan"
INDEX 00 03:55:06
FILE "05 - Home At Last.wav" WAVE
INDEX 01 00:00:00
TRACK 06 AUDIO
TITLE "I Got The News"
PERFORMER "Steely Dan"
INDEX 00 05:30:54
FILE "06 - I Got The News.wav" WAVE
INDEX 01 00:00:00
TRACK 07 AUDIO
TITLE "Josie"
PERFORMER "Steely Dan"
INDEX 00 05:01:73
FILE "07 - Josie.wav" WAVE
INDEX 01 00:00:00

Этот торрент недоступен для скачивания без регистрации, однако доступен по публичной magnet-ссылке (источники с публичных трекеров). Перед использованием ссылки прочтите, пожалуйста Пользовательское соглашение, а также как можно дольше оставайтесь на раздаче! Для того, чтобы скачать сам торрент-файл (который видит больше источников), а также для того, чтобы поблагодарить релизера, вам необходимо зарегистрироваться. Если регистрироваться лень - вы можете также попробовать скачать релиз по нашим партнерским ссылкам ниже. Кроме того, зарегистрированным пользователям не показывается всплывающая реклама при скачивании.

[underverse.su].t49066.torrent
Трекер: Зарегистрирован   [ 01.02.2015 14:07 ]  

Статус: проверено (by Бишеп at 01.02.2015 14:07)
Поблагодарили: пока никто не поблагодарил...
Тип торрента: публичный - доступные источники с открытых трекеров: 
Размер: 215 MB (занимает 0,05 DVDR, для записи нужно 1 болванка DVDR/RW)
 
 
Похожие темы
Форум Тема Автор Торрент Отв. Посл. сооб.
Jazz (Lossless) (Jazz, Rock, Funk, Soul, Blues) Julie Driscoll & Brian Auger - Best Of Julie Driscoll & Brian Auger (1992) [FLAC (Image+.Cue), Lossless] Бишеп
2 | 1

0 | 1193

4

13.01.2017 21:24

Jazz (Lossless) (Jazz, Rock) Sadakazu Tabata & Groovy 6 - Smash In The Rock (2007) [FLAC (Tracks+.Cue), Lossless] Бишеп
2 | 2

0 | 176

4

11.04.2018 13:09

tantal Пол:Муж

22-Май-2017 17:35

Бишеп

Благодарю. Отличный материал. Сейчас с таким диапазоном и качеством не записывают. :good:

Яндекс.Метрика powered by Sphinx


В Н И М А Н И Е
Сайт не распространяет и не хранит электронные версии произведений, а лишь бесплатно и без коммерческой выгоды (не требуя взамен платы,
SMS и т.д.) предоставляет доступ к создаваемому пользователями каталогу ссылок на торрент-файлы, которые содержат только списки хеш-сумм.
Убедительная просьба с жалобами обращаться напрямую к пользователю, разместившему торрент файл.

Вверх