Loading...
Error

(Alternative Rock) Автограф - Автограф-1 (1996) [APE (Image+.CUE), Lossless]

Статистика раздачи
Размер:  363 MB   |    Зарегистрирован:  3 года 5 месяцев   |    Скачан:  7 раз

Полного источника не было: 4 месяца 25 дней

Сидов:  0  |  0 KB/s  ]   Личеров:  0  |  0 KB/s  ]

* - сиды/пиры с внешних источников

   
 
Автор Сообщение

Бишеп Пол:Муж

13-Фев-2015 16:44

Автограф - Автограф-1

Жанр: Alternative Rock
Год выпуска: 1996
Источник: CD
Производитель диска: RDM - CDRDM 604133
Аудиокодек: APE
Тип рипа: Image+.CUE
Битрейт аудио: lossless
Продолжительность: 01:09:50


Треклист:
01. Пристегните ремни безопасности (А. Ситковецкий)
02. Ливень (А. Ситковецкий - Б. Станилов)
03. 2000 лет (К. Кельми - М. Пушкина)
04. Цепочка дней (А. Ситковецкий / К. Кельми - М. Пушкина)
05. Ирландия, Ольстер (А. Ситковецкий - М. Пушкина)
06. Вчерашний день (С. Брутян - М. Пушкина)
07. День и ночь (Л. Гуткин - М. Пушкина)
08. Монолог (А. Ситковецкий - М. Пушкина / Б. Баркас)
09. Марсианские хроники, ч. I (А. Ситковецкий / Л. Гуткин - М. Пушкина)
10. Возвращение, ч. II (Л. Гуткин - М. Пушкина)
11. Блюз "Каприз" (А. Ситковецкий)
12. Старинная баллада (Л. Гуткин - М. Пушкина)
13. Корабль (А. Ситковецкий - Б. Баркас)

Exact Audio Copy V0.99 prebeta 4 from 23. January 2008

Отчёт EAC об извлечении, выполненном 3. ноября 2008, 22:17

Автограф / Автограф-1

Дисковод: Optiarc DVD RW AD-5170A Adapter: 0 ID: 0

Режим чтения : Достоверность
Использование точного потока : Да
Отключение кэша аудио : Да
Использование указателей C2 : Нет

Коррекция смещения при чтении : 48
Способность читать области Lead-in и Lead-out : Нет
Заполнение пропущенных сэмплов тишиной : Да
Удаление блоков с тишиной в начале и конце : Нет
При вычислениях CRC использовались нулевые сэмплы : Да
Интерфейс : Установленный внешний ASPI-интерфейс

Выходной формат : Внутренние WAV-операции
Формат сэмплов : 44.100 Гц; 16 бит; стерео

TOC извлечённого CD

Трек | Старт | Длительность | Начальный сектор | Конечный сектор
---------------------------------------------------------------------
1 | 0:00.25 | 3:18.00 | 25 | 14874
2 | 3:18.25 | 6:32.50 | 14875 | 44324
3 | 9:51.00 | 6:54.50 | 44325 | 75424
4 | 16:45.50 | 4:29.25 | 75425 | 95624
5 | 21:15.00 | 4:05.50 | 95625 | 114049
6 | 25:20.50 | 4:00.50 | 114050 | 132099
7 | 29:21.25 | 5:28.00 | 132100 | 156699
8 | 34:49.25 | 4:38.37 | 156700 | 177586
9 | 39:27.62 | 8:57.63 | 177587 | 217924
10 | 48:25.50 | 3:55.37 | 217925 | 235586
11 | 52:21.12 | 4:26.25 | 235587 | 255561
12 | 56:47.37 | 6:46.13 | 255562 | 286024
13 | 63:33.50 | 6:14.25 | 286025 | 314099

Характеристики диапазона извлечения и сообщения об ошибках

Выбранный диапазон

Имя файла D:\Audio\Автограф-1\Автограф - Автограф-1.wav

Пиковый уровень 100.0 %
Качество диапазона 99.9 %
CRC копии 0786CD09
Копирование... OK

Ошибок не произошло

AccurateRip: сводка
Трек 1 точное извлечение (доверие 1) [A5735C5F]
Трек 2 точное извлечение (доверие 1) [C30F1BC1]
Трек 3 точное извлечение (доверие 1) [29748441]
Трек 4 точное извлечение (доверие 1) [EEE35BC7]
Трек 5 точное извлечение (доверие 1) [EC186A47]
Трек 6 точное извлечение (доверие 1) [84E20F79]
Трек 7 точное извлечение (доверие 1) [BF1E620D]
Трек 8 точное извлечение (доверие 1) [4A2175B1]
Трек 9 точное извлечение (доверие 1) [8F7B9E95]
Трек 10 точное извлечение (доверие 1) [1849F292]
Трек 11 точное извлечение (доверие 1) [BAAEA349]
Трек 12 точное извлечение (доверие 1) [F7819B42]
Трек 13 точное извлечение (доверие 1) [DA47AA1F]
Все треки извлечены точно

Конец отчёта

REM GENRE Rock
REM DATE 1996
REM DISCID A7105C0D
REM COMMENT "ExactAudioCopy v0.99pb4"
PERFORMER "Автограф"
TITLE "Автограф-1"
FILE "Автограф - Автограф-1.ape" WAVE
TRACK 01 AUDIO
TITLE "Пристегните Ремни Безопасности"
PERFORMER "Автограф"
INDEX 00 00:00:00
INDEX 01 00:00:25
TRACK 02 AUDIO
TITLE "Ливень"
PERFORMER "Автограф"
INDEX 00 03:15:25
INDEX 01 03:18:25
TRACK 03 AUDIO
TITLE "2000 Лет"
PERFORMER "Автограф"
INDEX 00 09:47:50
INDEX 01 09:51:00
TRACK 04 AUDIO
TITLE "Цепочка Дней"
PERFORMER "Автограф"
INDEX 00 16:42:25
INDEX 01 16:45:50
TRACK 05 AUDIO
TITLE "Ирландия, Ольстер"
PERFORMER "Автограф"
INDEX 00 21:11:50
INDEX 01 21:15:00
TRACK 06 AUDIO
TITLE "Вчерашний День"
PERFORMER "Автограф"
INDEX 00 25:17:50
INDEX 01 25:20:50
TRACK 07 AUDIO
TITLE "День и Ночь"
PERFORMER "Автограф"
INDEX 00 29:18:00
INDEX 01 29:21:25
TRACK 08 AUDIO
TITLE "Монолог"
PERFORMER "Автограф"
INDEX 00 34:46:12
INDEX 01 34:49:25
TRACK 09 AUDIO
TITLE "Марсианские хроники, ч.I"
PERFORMER "Автограф"
INDEX 00 39:24:50
INDEX 01 39:27:62
TRACK 10 AUDIO
TITLE "Возвращение, ч.II"
PERFORMER "Автограф"
INDEX 00 48:23:00
INDEX 01 48:25:50
TRACK 11 AUDIO
TITLE "Блюз 'Каприз'"
PERFORMER "Автограф"
INDEX 00 52:17:50
INDEX 01 52:21:12
TRACK 12 AUDIO
TITLE "Старинная Баллада"
PERFORMER "Автограф"
INDEX 00 56:44:25
INDEX 01 56:47:37
TRACK 13 AUDIO
TITLE "Корабль"
PERFORMER "Автограф"
INDEX 00 63:31:00
INDEX 01 63:33:50

Этот торрент недоступен для скачивания без регистрации, однако доступен по публичной magnet-ссылке (источники с публичных трекеров). Перед использованием ссылки прочтите, пожалуйста Пользовательское соглашение, а также как можно дольше оставайтесь на раздаче! Для того, чтобы скачать сам торрент-файл (который видит больше источников), а также для того, чтобы поблагодарить релизера, вам необходимо зарегистрироваться. Если регистрироваться лень - вы можете также попробовать скачать релиз по нашим партнерским ссылкам ниже. Кроме того, зарегистрированным пользователям не показывается всплывающая реклама при скачивании.

[underverse.su].t50243.torrent
Трекер: Зарегистрирован   [ 13.02.2015 16:44 ]  

Статус: проверено (by Бишеп at 13.02.2015 16:44)
Поблагодарили: 1 человек
Тип торрента: публичный - доступные источники с открытых трекеров: 
Размер: 363 MB (занимает 0,08 DVDR, для записи нужно 1 болванка DVDR/RW)
 
 
Похожие темы
Форум Тема Автор Торрент Отв. Посл. сооб.
Зарубежная Pop Музыка (Alternative Pop, Neo Soul, Indie) Amanda Jenssen - Sanger fran on (2015) [MP3, 320 kbps] 90ytr90
1 | 2

0 | 1140

3

23.03.2015 19:02

Зарубежная Pop Музыка (Alternative, Indie) Anna of the North - Lovers (2017) [MP3, 320 kbps CBR] Darkferse
5 | 0

0 | 748

4

13.09.2017 08:47

Зарубежная Pop Музыка (Alternative, Pop, Soul) Plan B - Heaven Before All Hell Breaks Loose (2018) [MP3, 320 kbps CBR] 90ytr90
15 | 0

0 | 231

3

03.06.2018 05:52

Зарубежный Hard, Progressive, Soft, Melodic, AOR, Folk, Classic Rock (Alternative Rock / Progressive Rock) Muse - The 2nd Law (2012) [MP3, 320 kbps] Jimmy
0 | 0

0 | 1356

13

27.09.2012 04:30

Зарубежный Black, Death, Heavy, Thrash, Power, Folk, Gothic Metal (Alternative Metal) This Tragic Day - This Tragic Day (2012) [MP3, 320 kbps] NiiggazCPT
1 | 0

0 | 1541

4

28.10.2012 07:21

Зарубежный Punk, Hardcore, Grunge, Alternative (Alternative) Green Day - Greatest Hits: God's Favorite Band (2017) [iTunes AAC M4A, 256 kbps VBR] Web garry
3 | 0

5 | 3863

1

04.02.2010 17:52

Зарубежный Punk, Hardcore, Grunge, Alternative (Alternative) Red Hot Chili Peppers - Greatest Hits (2003) [iTunes AAC M4A, 256 kbps VBR] Web garry
6 | 1

0 | 2134

1

02.06.2009 18:51

Зарубежный Punk, Hardcore, Grunge, Alternative (Alternative) The Killers - Discography (2004-2013) [iTunes AAC M4A, 256 kbps VBR] Web garry
11 | 3

0 | 6126

4

20.06.2009 12:07

Зарубежный Punk, Hardcore, Grunge, Alternative (Alternative, Pop-Punk, Female Vocal) We Are the In Crowd - Weird Kids [Deluxe Edition] (2014) [MP3, 320 kbps] Jimmy
3 | 0

0 | 1185

3

23.04.2014 15:58

Зарубежный Punk, Hardcore, Grunge, Alternative (Alternative, Pop Punk, Emo) Fireworks - (Oh), Common Life (2014) [MP3, 320 kbps] Jimmy
1 | 0

0 | 959

4

23.04.2014 15:55


Яндекс.Метрика powered by Sphinx


В Н И М А Н И Е
Сайт не распространяет и не хранит электронные версии произведений, а лишь бесплатно и без коммерческой выгоды (не требуя взамен платы,
SMS и т.д.) предоставляет доступ к создаваемому пользователями каталогу ссылок на торрент-файлы, которые содержат только списки хеш-сумм.
Убедительная просьба с жалобами обращаться напрямую к пользователю, разместившему торрент файл.

Вверх