Loading...
Error

(Rock, Punk, Ska) The Ленинград - Фарш (2014) [FLAC (Image+.CUE), Lossless]

Статистика раздачи
Размер:  311 MB   |    Зарегистрирован:  3 года 5 месяцев   |    Скачан:  23 раза

Полного источника не было: 24 дня

Сидов:  0  |  0 KB/s  ]   Личеров:  0  |  0 KB/s  ]

* - сиды/пиры с внешних источников

   
 
Автор Сообщение

Бишеп Пол:Муж

15-Фев-2015 16:43

The Ленинград - Фарш

Жанр: Rock, Punk, Ska
Год выпуска: 2014
Источник: CD
Производитель диска: Soyuz Music, Шнур'ОК SZCD 6599-14
Аудиокодек: FLAC
Тип рипа: Image+.CUE
Битрейт аудио: lossless
Продолжительность: 00:44:25


Треклист:
01. Машина
02. Шалавы
03. Патриотка
04. Масштаб
05. Никола
06. Е**баб
07. Х***нада
08. Блоха
09. Дорожная
10. Пока жив
11. Фиаско
12. Шлюха
13. Где мы есть
14. Похороны
Bonus:
15. БалаLIKE (feat. Slider & Magnit)

Exact Audio Copy V1.0 beta 4 from 7. December 2014

EAC extraction logfile from 27. December 2014, 12:25

THE ЛЕНИНГРАД / ФАРШ

Used drive : MATSHITABD-CMB UJ160 Adapter: 0 ID: 0

Read mode : Secure
Utilize accurate stream : Yes
Defeat audio cache : Yes
Make use of C2 pointers : No

Read offset correction : 103
Overread into Lead-In and Lead-Out : No
Fill up missing offset samples with silence : Yes
Delete leading and trailing silent blocks : No
Null samples used in CRC calculations : Yes
Used interface : Installed external ASPI interface

Used output format : User Defined Encoder
Selected bitrate : 896 kBit/s
Quality : High
Add ID3 tag : No
Command line compressor : C:\Program Files (x86)\Exact Audio Copy\Flac\flac.exe
Additional command line options : -T "DATE=%year%" -T "GENRE=%genre%" -8 -V %source%

TOC of the extracted CD

Track | Start | Length | Start sector | End sector
---------------------------------------------------------
1 | 0:00.00 | 2:38.32 | 0 | 11881
2 | 2:38.32 | 2:45.01 | 11882 | 24257
3 | 5:23.33 | 2:48.49 | 24258 | 36906
4 | 8:12.07 | 2:50.40 | 36907 | 49696
5 | 11:02.47 | 3:12.61 | 49697 | 64157
6 | 14:15.33 | 2:30.40 | 64158 | 75447
7 | 16:45.73 | 3:10.57 | 75448 | 89754
8 | 19:56.55 | 3:20.19 | 89755 | 104773
9 | 23:16.74 | 2:48.13 | 104774 | 117386
10 | 26:05.12 | 2:48.48 | 117387 | 130034
11 | 28:53.60 | 3:13.67 | 130035 | 144576
12 | 32:07.52 | 2:40.52 | 144577 | 156628
13 | 34:48.29 | 3:13.43 | 156629 | 171146
14 | 38:01.72 | 3:07.06 | 171147 | 185177
15 | 41:09.03 | 3:15.59 | 185178 | 199861

Range status and errors

Selected range

Filename C:\Users\GREH\Desktop\THE ЛЕНИНГРАД - ФАРШ\THE ЛЕНИНГРАД - ФАРШ.wav

Peak level 99.1 %
Extraction speed 2.4 X
Range quality 99.9 %
Test CRC 8B5AC0FF
Copy CRC 8B5AC0FF
Copy OK

No errors occurred

AccurateRip summary
Track 1 not present in database
Track 2 not present in database
Track 3 not present in database
Track 4 not present in database
Track 5 not present in database
Track 6 not present in database
Track 7 not present in database
Track 8 not present in database
Track 9 not present in database
Track 10 not present in database
Track 11 not present in database
Track 12 not present in database
Track 13 not present in database
Track 14 not present in database
Track 15 not present in database
None of the tracks are present in the AccurateRip database

End of status report

---- CUETools DB Plugin V2.1.4

[CTDB TOCID: JIsPrj.mkF7l_gzo.G2HRVZsJuU-] disk not present in database
Submit result: JIsPrj.mkF7l_gzo.G2HRVZsJuU- has been uploaded

==== Log checksum BED66984DF57C6E83C93FFFAB518CBC33C450706257CA4755A2575E939E49A7E ====

REM GENRE Ska
REM DATE 2014
REM DISCID D80A680F
REM COMMENT "ExactAudioCopy v1.0b4"
PERFORMER "THE ЛЕНИНГРАД"
TITLE "ФАРШ"
FILE "THE ЛЕНИНГРАД - ФАРШ.flac" WAVE
TRACK 01 AUDIO
TITLE "Машина"
PERFORMER "THE ЛЕНИНГРАД"
INDEX 01 00:00:00
TRACK 02 AUDIO
TITLE "Шалавы"
PERFORMER "THE ЛЕНИНГРАД"
INDEX 01 02:38:32
TRACK 03 AUDIO
TITLE "Патриотка"
PERFORMER "THE ЛЕНИНГРАД"
INDEX 01 05:23:33
TRACK 04 AUDIO
TITLE "Масштаб"
PERFORMER "THE ЛЕНИНГРАД"
INDEX 01 08:12:07
TRACK 05 AUDIO
TITLE "Никола"
PERFORMER "THE ЛЕНИНГРАД"
INDEX 01 11:02:47
TRACK 06 AUDIO
TITLE "Ебубаб"
PERFORMER "THE ЛЕНИНГРАД"
INDEX 01 14:15:33
TRACK 07 AUDIO
TITLE "Хулинада"
PERFORMER "THE ЛЕНИНГРАД"
INDEX 01 16:45:73
TRACK 08 AUDIO
TITLE "Блоха"
PERFORMER "THE ЛЕНИНГРАД"
INDEX 01 19:56:55
TRACK 09 AUDIO
TITLE "Дорожная"
PERFORMER "THE ЛЕНИНГРАД"
INDEX 01 23:16:74
TRACK 10 AUDIO
TITLE "Пока жив"
PERFORMER "THE ЛЕНИНГРАД"
INDEX 01 26:05:12
TRACK 11 AUDIO
TITLE "Фиаско"
PERFORMER "THE ЛЕНИНГРАД"
INDEX 01 28:53:60
TRACK 12 AUDIO
TITLE "Шлюха"
PERFORMER "THE ЛЕНИНГРАД"
INDEX 01 32:07:52
TRACK 13 AUDIO
TITLE "Где мы есть"
PERFORMER "THE ЛЕНИНГРАД"
INDEX 01 34:48:29
TRACK 14 AUDIO
TITLE "Похороны"
PERFORMER "THE ЛЕНИНГРАД"
INDEX 01 38:01:72
TRACK 15 AUDIO
TITLE "БалаLIKE (Slider & Magnit feat. гр. Ленинград"
PERFORMER "THE ЛЕНИНГРАД"
INDEX 01 41:09:03

AUDIOCHECKER v2.0 beta (build 457) - by Dester - opdester@freemail.hu
~~~~~~~~~~~~~~~~~~~~~~~~~~~~~~~~~~

Started at: суббота, 27. 12. 2014. - 12:41.50
1 file found

1 -===- C:\Users\GREH\Desktop\THE ЛЕНИНГРАД - ФАРШ\THE ЛЕНИНГРАД - ФАРШ.flac
Extracted successfully
Conclusion: this track is CDDA with probability 100%
Tempfile successfully deleted.

Finished at: суббота, 27. 12. 2014. - 12:43.41 (operation time: 0:01.51)

picpicpic
Для увеличения картинки щелкните мышкой по превью

Этот торрент недоступен для скачивания без регистрации, однако доступен по публичной magnet-ссылке (источники с публичных трекеров). Перед использованием ссылки прочтите, пожалуйста Пользовательское соглашение, а также как можно дольше оставайтесь на раздаче! Для того, чтобы скачать сам торрент-файл (который видит больше источников), а также для того, чтобы поблагодарить релизера, вам необходимо зарегистрироваться. Если регистрироваться лень - вы можете также попробовать скачать релиз по нашим партнерским ссылкам ниже. Кроме того, зарегистрированным пользователям не показывается всплывающая реклама при скачивании.

[underverse.su].t50410.torrent
Трекер: Зарегистрирован   [ 15.02.2015 16:43 ]  

Статус: проверено (by Бишеп at 15.02.2015 16:43)
Поблагодарили: пока никто не поблагодарил...
Тип торрента: публичный - доступные источники с открытых трекеров: 
Размер: 311 MB (занимает 0,07 DVDR, для записи нужно 1 болванка DVDR/RW)
 
 
Похожие темы
Форум Тема Автор Торрент Отв. Посл. сооб.
Зарубежный Punk, Grunge, Alternative (Lossless) (Rock, Punk) White Lung - Deep Fantasy (2014) [FLAC (Tracks+.CUE), Lossless] Бишеп
9 | 0

0 | 729

2

26.04.2015 08:02

Отечественный Hard, Progressive, Melodic, AOR (Lossless) (Rock, Punk) Кукрыниксы - Вера - Надежда - Любовь (2016) [FLAC (Image+.Cue), Lossless] Бишеп
7 | 1

0 | 91

1

25.06.2018 17:35

Отечественный Punk, Grunge, Alternative (Lossless) (Rock, Punk, Ska) The Ленинград - Пляж наш (2014) [FLAC (Image+.CUE), Lossless] Бишеп
19 | 1

0 | 2082

21

14.02.2015 16:03

Архив (рок) (Rock, Punk Rock) Billy Idol - Cyberpunk (1993) [MP3, 320 kbps] ZondeR
0 | 0

1 | 1613

1

05.11.2011 14:45


Яндекс.Метрика powered by Sphinx


В Н И М А Н И Е
Сайт не распространяет и не хранит электронные версии произведений, а лишь бесплатно и без коммерческой выгоды (не требуя взамен платы,
SMS и т.д.) предоставляет доступ к создаваемому пользователями каталогу ссылок на торрент-файлы, которые содержат только списки хеш-сумм.
Убедительная просьба с жалобами обращаться напрямую к пользователю, разместившему торрент файл.

Вверх