Loading...
Error

Губка Боб в 3D / The SpongeBob Movie: Sponge Out of Water (Пол Тиббит) [2015 г., мультфильм, комедия, приключения, семейный, BDRip 1080p] RUS Dub + UKR Dub + Original

Статистика раздачи
Размер:  8,98 GB   |    Зарегистрирован:  3 года   |    Скачан:  10 раз

Полного источника не было: 4 дня

Сидов:  0  |  0 KB/s  ]   Личеров:  0  |  0 KB/s  ]

* - сиды/пиры с внешних источников

   
 
Автор Сообщение

makkol Пол:Муж

13-Июн-2015 13:55

Губка Боб в 3D / The SpongeBob Movie: Sponge Out of Water
«Всё квадратное станет явным»


Год выпуска: 2015
Жанр: мультфильм, комедия, приключения, семейный
Производство: США, Nickelodeon Movies, Paramount Animation, United Plankton Pictures
Режиссер: Пол Тиббит
Роли озвучивали: Антонио Бандерас, Том Кенни, Эрик Бауза, Тим Конуэй, Эдди Дизен, Роб Полсен, Кевин Майкл Ричардсон, Эйприл Стюарт, Кри Саммер, Билли Уэст, Карлос Аласраки, Нолан Норт, Пол Тиббит, Билл Фагербакки, Роджер Бампасс, Мистер Лоуренс, Джилл Тэлли, Ди Брэдли Бэйкер, Клэнси Браун, Кэролин Лоуренс
Сюжет фильма:
Коварный пират Бургер-Борода наконец-то нашёл волшебную книгу, способную исполнить любое его желание. Однако в книге не хватает последней страницы, которая хранится глубоко под водой, на морском дне, под присмотром знаменитого Губки Боба. Чтобы завладеть последней страницей волшебной книги, Бургер-Борода готов разрушить мир Губки Боба и его друзей. Для спасения своего подводного мира Губка Боб и его команда отправляются в мир людей, где их ждут невероятные приключения.

  • Мировая премьера: 28 января 2015
  • Российская премьера: 12 февраля 2015


Релиз: Лицензия

Качество видео: BDRip 1080p

Продолжительность: 01:32:34
Формат: MKV
Видео: MPEG-4 AVC, 1920x1080 (16:9), 23.976 fps, 10456 kbps
Аудио #1: русский, дублированный, AC3 5.1, 48 kHz, 640 kbps
Аудио #2: украинский, дублированный, AC3 5.1, 48 kHz, 640 kbps
Аудио #3: английский, оригинал, DTS 5.1, 48 kHz, 1510 kbps
Аудио #4: английский, комментарии, AC3 5.1, 48 kHz, 640 kbps
Субтитры: русские, украинские, английские вшитые отключаемые

Код:

Общее
Уникальный идентификатор                 : 202478748853457896549677765977696338339 (0x9853FD11BCA5F3EF8471B3466FE381A3)
Полное имя                               : Gubka.Bob.3D.2015.BDRip.1080p.mkv
Формат                                   : Matroska
Версия формата                           : Version 4 / Version 2
Размер файла                             : 8,98 Гбайт
Продолжительность                        : 1 ч. 32 м.
Общий поток                              : 13,9 Мбит/сек
Дата кодирования                         : UTC 2015-06-04 01:08:06
Программа кодирования                    : mkvmerge v7.9.0 ('Birds') 64bit
Библиотека кодирования                   : libebml v1.3.1 + libmatroska v1.4.2
Attachements                             : The-SpongeBob-Movie_3A-Sponge-Out-of-Water.jpg
DURATION                                 : 01:30:48.150000000
NUMBER_OF_FRAMES                         : 1295
NUMBER_OF_BYTES                          : 52429
_STATISTICS_WRITING_APP                  : mkvmerge v7.9.0 ('Birds') 64bit
_STATISTICS_WRITING_DATE_UTC             : 2015-06-04 01:08:06
_STATISTICS_TAGS                         : BPS DURATION NUMBER_OF_FRAMES NUMBER_OF_BYTES

Видео
Идентификатор                            : 1
Формат                                   : AVC
Формат/Информация                        : Advanced Video Codec
Профиль формата                          : High@L4.1
Параметр CABAC формата                   : Да
Параметр ReFrames формата                : 4 кадра
Идентификатор кодека                     : V_MPEG4/ISO/AVC
Продолжительность                        : 1 ч. 32 м.
Битрейт                                  : 10,2 Мбит/сек
Ширина                                   : 1920 пикселей
Высота                                   : 1080 пикселей
Соотношение сторон                       : 16:9
Режим частоты кадров                     : Постоянный
Частота кадров                           : 23,976 кадра/сек
Цветовое пространство                    : YUV
Субдискретизация насыщенности            : 4:2:0
Битовая глубина                          : 8 бит
Тип развёртки                            : Прогрессивная
Бит/(Пиксели*Кадры)                      : 0.205
Размер потока                            : 6,59 Гбайт (73%)
Библиотека кодирования                   : x264 core 146 r2538 121396c
Настройки программы                      : cabac=1 / ref=4 / deblock=1:-3:-3 / analyse=0x3:0x133 / me=umh / subme=10 / psy=1 / psy_rd=0.85:0.00 / mixed_ref=1 / me_range=48 / chroma_me=1 / trellis=2 / 8x8dct=1 / cqm=0 / deadzone=21,11 / fast_pskip=1 / chroma_qp_offset=-2 / threads=16 / lookahead_threads=2 / sliced_threads=0 / nr=0 / decimate=1 / interlaced=0 / bluray_compat=0 / constrained_intra=0 / bframes=8 / b_pyramid=2 / b_adapt=2 / b_bias=0 / direct=3 / weightb=1 / open_gop=0 / weightp=2 / keyint=250 / keyint_min=23 / scenecut=40 / intra_refresh=0 / rc_lookahead=150 / rc=crf / mbtree=0 / crf=17.0 / qcomp=0.65 / qpmin=0 / qpmax=69 / qpstep=4 / vbv_maxrate=50000 / vbv_bufsize=62500 / crf_max=0.0 / nal_hrd=none / filler=0 / ip_ratio=1.30 / pb_ratio=1.30 / aq=3:0.85
Язык                                     : English
Default                                  : Да
Forced                                   : Нет
DURATION                                 : 01:32:34.424000000
NUMBER_OF_FRAMES                         : 133173
NUMBER_OF_BYTES                          : 7259584701
_STATISTICS_WRITING_APP                  : mkvmerge v7.9.0 ('Birds') 64bit
_STATISTICS_WRITING_DATE_UTC             : 2015-06-04 01:08:06
_STATISTICS_TAGS                         : BPS DURATION NUMBER_OF_FRAMES NUMBER_OF_BYTES

Аудио #1
Идентификатор                            : 2
Формат                                   : AC-3
Формат/Информация                        : Audio Coding 3
Расширение режима                        : CM (complete main)
Параметр Endianness формата              : Big
Идентификатор кодека                     : A_AC3
Продолжительность                        : 1 ч. 32 м.
Вид битрейта                             : Постоянный
Битрейт                                  : 640 Кбит/сек
Каналы                                   : 6 каналов
Расположение каналов                     : Front: L C R, Side: L R, LFE
Частота                                  : 48,0 КГц
Битовая глубина                          : 16 бит
Метод сжатия                             : С потерями
Размер потока                            : 424 Мбайт (5%)
Заголовок                                : AC3 / 5.1 / 48 kHz / 640 kbps / DN -4dB / Licence CEE
Язык                                     : Russian
Default                                  : Да
Forced                                   : Нет

Аудио #2
Идентификатор                            : 3
Формат                                   : AC-3
Формат/Информация                        : Audio Coding 3
Расширение режима                        : CM (complete main)
Параметр Endianness формата              : Big
Идентификатор кодека                     : A_AC3
Продолжительность                        : 1 ч. 32 м.
Вид битрейта                             : Постоянный
Битрейт                                  : 640 Кбит/сек
Каналы                                   : 6 каналов
Расположение каналов                     : Front: L C R, Side: L R, LFE
Частота                                  : 48,0 КГц
Битовая глубина                          : 16 бит
Метод сжатия                             : С потерями
Размер потока                            : 424 Мбайт (5%)
Заголовок                                : AC3 / 5.1 / 48 kHz / 640 kbps / DN -4dB / Licence CEE
Язык                                     : Ukrainian
Default                                  : Нет
Forced                                   : Нет

Аудио #3
Идентификатор                            : 4
Формат                                   : DTS
Формат/Информация                        : Digital Theater Systems
Режим                                    : 16
Параметр Endianness формата              : Big
Идентификатор кодека                     : A_DTS
Продолжительность                        : 1 ч. 32 м.
Вид битрейта                             : Постоянный
Битрейт                                  : 1509 Кбит/сек
Каналы                                   : 6 каналов
Расположение каналов                     : Front: L C R, Side: L R, LFE
Частота                                  : 48,0 КГц
Битовая глубина                          : 24 бит
Метод сжатия                             : С потерями
Размер потока                            : 999 Мбайт (11%)
Заголовок                                : DTS / 5.1 / 1510 kbps / Original
Язык                                     : English
Default                                  : Нет
Forced                                   : Нет

Аудио #4
Идентификатор                            : 5
Формат                                   : AC-3
Формат/Информация                        : Audio Coding 3
Расширение режима                        : CM (complete main)
Параметр Endianness формата              : Big
Идентификатор кодека                     : A_AC3
Продолжительность                        : 1 ч. 32 м.
Вид битрейта                             : Постоянный
Битрейт                                  : 640 Кбит/сек
Каналы                                   : 6 каналов
Расположение каналов                     : Front: L C R, Side: L R, LFE
Частота                                  : 48,0 КГц
Битовая глубина                          : 16 бит
Метод сжатия                             : С потерями
Размер потока                            : 424 Мбайт (5%)
Заголовок                                : AC3 / 5.1 / 640 kbps / Descriptive
Язык                                     : English
Default                                  : Нет
Forced                                   : Нет

Текст #1
Идентификатор                            : 6
Формат                                   : UTF-8
Идентификатор кодека                     : S_TEXT/UTF8
Идентификатор кодека/Информация          : UTF-8 Plain Text
Заголовок                                : Forced
Язык                                     : Russian
Default                                  : Да
Forced                                   : Нет

Текст #2
Идентификатор                            : 7
Формат                                   : UTF-8
Идентификатор кодека                     : S_TEXT/UTF8
Идентификатор кодека/Информация          : UTF-8 Plain Text
Заголовок                                : Full
Язык                                     : Russian
Default                                  : Нет
Forced                                   : Нет

Текст #3
Идентификатор                            : 8
Формат                                   : UTF-8
Идентификатор кодека                     : S_TEXT/UTF8
Идентификатор кодека/Информация          : UTF-8 Plain Text
Заголовок                                : Full
Язык                                     : Ukrainian
Default                                  : Нет
Forced                                   : Нет

Текст #4
Идентификатор                            : 9
Формат                                   : UTF-8
Идентификатор кодека                     : S_TEXT/UTF8
Идентификатор кодека/Информация          : UTF-8 Plain Text
Заголовок                                : Full
Язык                                     : English
Default                                  : Нет
Forced                                   : Нет

Текст #5
Идентификатор                            : 10
Формат                                   : UTF-8
Идентификатор кодека                     : S_TEXT/UTF8
Идентификатор кодека/Информация          : UTF-8 Plain Text
Заголовок                                : SDH
Язык                                     : English
Default                                  : Нет
Forced                                   : Нет

Текст #6
Идентификатор                            : 11
Формат                                   : UTF-8
Идентификатор кодека                     : S_TEXT/UTF8
Идентификатор кодека/Информация          : UTF-8 Plain Text
Заголовок                                : SDH Colored
Язык                                     : English
Default                                  : Нет
Forced                                   : Нет

Меню
00:00:00.000                             : en:00:00:00.000
00:03:40.387                             : en:00:03:40.387
00:06:22.173                             : en:00:06:22.173
00:12:29.999                             : en:00:12:29.999
00:18:21.600                             : en:00:18:21.600
00:22:52.079                             : en:00:22:52.079
00:30:14.688                             : en:00:30:14.688
00:35:37.886                             : en:00:35:37.886
00:39:50.972                             : en:00:39:50.972
00:43:13.424                             : en:00:43:13.424
00:50:54.510                             : en:00:50:54.510
00:55:16.396                             : en:00:55:16.396
01:00:03.099                             : en:01:00:03.099
01:04:19.355                             : en:01:04:19.355
01:10:16.587                             : en:01:10:16.587
01:16:20.367                             : en:01:16:20.367
01:20:29.491                             : en:01:20:29.491
01:23:30.839                             : en:01:23:30.839
Сэмпл

picpicpicpicpic
Для увеличения картинки щелкните мышкой по превью

Этот торрент недоступен для скачивания без регистрации, однако доступен по публичной magnet-ссылке (источники с публичных трекеров). Перед использованием ссылки прочтите, пожалуйста Пользовательское соглашение, а также как можно дольше оставайтесь на раздаче! Для того, чтобы скачать сам торрент-файл (который видит больше источников), а также для того, чтобы поблагодарить релизера, вам необходимо зарегистрироваться. Если регистрироваться лень - вы можете также попробовать скачать релиз по нашим партнерским ссылкам ниже. Кроме того, зарегистрированным пользователям не показывается всплывающая реклама при скачивании.

[underverse.su].t55265.torrent
Трекер: Зарегистрирован   [ 13.06.2015 13:55 ]  

Статус: проверено (by Паукан at 14.06.2015 17:49)
Поблагодарили: пока никто не поблагодарил...
Тип торрента: публичный - доступные источники с открытых трекеров: 
Размер: 8,98 GB (занимает 2,05 DVDR, для записи нужно 3 болванки DVDR/RW)
 
 
Похожие темы
Форум Тема Автор Торрент Отв. Посл. сооб.
Зарубежные мультфильмы Губка Боб в 3D / The SpongeBob Movie: Sponge Out of Water (Пол Тиббит) [2015 г., мультфильм, комедия, приключения, семейный, BDRip] Dub makkol
5 | 0

0 | 808

45

13.06.2015 13:33

Мультсериалы Губка Боб Квадратные штаны / SpongeBob SquarePants / Сезон: 1-7 / Серии: 1-152 из 152 (Дерек Драймон / Derek Drymon) [1999-2011, мультсериал, приключения, DVB] Dub uzi2009
7 | 4

0 | 1767

7

11.04.2014 18:39

T Новинки мультфильмов [CAMRip, TS, DVDScr, WP, TC] Губка Боб в 3D / The SpongeBob Movie: Sponge Out of Water (Пол Тиббит) [2015 г., мультфильм, комедия, приключения, семейный, TS] Dub (звук с TS) + Original (Eng) 90ytr90
1 | 0

0 | 2327

72

18.02.2015 18:39

Архив (мультфильмы) Губка Боб Квадратные Штаны / SpongeBob SquarePants / 6 сезон, серии 1-40 (Стивен Хилленбург ) [2008 г., Мультсериал,комедия, семейный, DVDRip] МУХА~
9 | 0

3 | 2921

21

24.05.2018 22:39

Архив (мультфильмы) Губка Боб Квадратные Штаны / SpongeBob SquarePants / Сезон 7, серия 1 (Стивен Хилленбург ) [2009 г., комедия, семейный, мультсериал , DVDRip] МУХА~
0 | 0

1 | 2156

6

16.06.2011 08:09


Яндекс.Метрика powered by Sphinx


В Н И М А Н И Е
Сайт не распространяет и не хранит электронные версии произведений, а лишь бесплатно и без коммерческой выгоды (не требуя взамен платы,
SMS и т.д.) предоставляет доступ к создаваемому пользователями каталогу ссылок на торрент-файлы, которые содержат только списки хеш-сумм.
Убедительная просьба с жалобами обращаться напрямую к пользователю, разместившему торрент файл.

Вверх