Loading...
Error

(Smooth Jazz, Cover) Bob Baldwin - MelloWonder Songs In The Key of Stevie (2015) FLAC (image+.cue), lossless

Статистика раздачи
Размер:  566 MB   |    Зарегистрирован:  3 года   |    Скачан:  8 раз

Полного источника не было: 12 дней

Сидов:  0  |  0 KB/s  ]   Личеров:  0  |  0 KB/s  ]

* - сиды/пиры с внешних источников

   
 
Автор Сообщение

Бишеп Пол:Муж

19-Июл-2015 04:06

Bob Baldwin - MelloWonder Songs In The Key of Stevie

Жанр: Smooth Jazz, Cover
Год выпуска: 2015
Источник: CD
Производитель диска: City Sketches inc. Records/Red River Entertainment - RRECD 166
Аудиокодек: FLAC
Тип рипа: Image+.CUE
Битрейт аудио: lossless
Продолжительность: 01:15:37


Треклист:
01. The Real Thing/Keeping It Real (Featuring Chieli Minucci/Ragan Whiteside)
02. Creepin'
03. Don't You Worry 'bout A Thing (Featuring Chieli Minucci)
04. That Girl (Featuring U-Nam)
05. Lately/No More Tears
06. Love's Light In Flight/Love Trippin'
07. The Stevie Wonder Mashup (Featuring Stanley Thompson And Toni Redd)
08. Wonder Wander
09. Stevie (Featuring Marion Meadows)
10. You And I/The Wedding Suite (Featuring Ryan Kilgore)
11. Rocket Love/Back To Earth
12. Superwoman (Featuring Ragan Whiteside)
13. Looking For Another Pure Love
14. Love's In Need Of Love Today

Код:

Exact Audio Copy V1.0 beta 3 from 29. August 2011

Отчёт EAC об извлечении, выполненном 12. июля 2015, 21:25

Bob Baldwin / MelloWonder/Songs In The Key Of Stevie

Дисковод: PLEXTOR DVDR   PX-880SA   Adapter: 1  ID: 0

Режим чтения                 : Достоверность
Использование точного потока : Да
Отключение кэша аудио        : Да
Использование указателей C2  : Нет

Коррекция смещения при чтении                     : 6
Способность читать области Lead-in и Lead-out     : Нет
Заполнение пропущенных сэмплов тишиной            : Да
Удаление блоков с тишиной в начале и конце        : Нет
При вычислениях CRC использовались нулевые сэмплы : Да
Интерфейс                                         : Установленный внешний ASPI-интерфейс

Выходной формат          : Пользовательский кодировщик
Выбранный битрейт        : 1024 kBit/s
Качество                 : Высокий
Добавление ID3-тега      : Нет
Утилита сжатия           : C:\Program Files\Exact Audio Copy\FLAC\FLAC.EXE
Дополнительные параметры : -10 -V -T "ARTIST=%artist%" -T "ALBUM=%albumtitle%" -T "DATE=%year%" -T "GENRE=%genre%" -T "COMMENT=ripped by izia1956" %source%

TOC извлечённого CD

     Трек |   Старт  | Длительность | Начальный сектор | Конечный сектор
    ---------------------------------------------------------------------
       1  |  0:00.00 |    5:30.58   |           0      |      24807     
       2  |  5:30.58 |    5:19.58   |       24808      |      48790     
       3  | 10:50.41 |    5:13.31   |       48791      |      72296     
       4  | 16:03.72 |    5:57.58   |       72297      |      99129     
       5  | 22:01.55 |    5:52.15   |       99130      |     125544     
       6  | 27:53.70 |    6:13.69   |      125545      |     153588     
       7  | 34:07.64 |    4:39.13   |      153589      |     174526     
       8  | 38:47.02 |    3:36.18   |      174527      |     190744     
       9  | 42:23.20 |    5:59.72   |      190745      |     217741     
      10  | 48:23.17 |    6:14.28   |      217742      |     245819     
      11  | 54:37.45 |    5:57.30   |      245820      |     272624     
      12  | 60:35.00 |    6:10.23   |      272625      |     300397     
      13  | 66:45.23 |    3:57.55   |      300398      |     318227     
      14  | 70:43.03 |    4:54.24   |      318228      |     340301     

Характеристики диапазона извлечения и сообщения об ошибках

Выбранный диапазон

     Имя файла D:\BitComet\Bob Baldwin - MelloWonder - Songs In The Key Of Stevie(2015)(flac)\Bob Baldwin - MelloWonder,Songs In The Key Of Stevie.wav

     Пиковый уровень 98.9 %
     Скорость извлечения 2.9 X
     Качество диапазона 100.0 %
     CRC теста D2DEC337
     CRC копии D2DEC337
     Копирование... OK

Ошибок не произошло

 
AccurateRip: сводка
 
Трек  1  отсутствует в базе данных
Трек  2  отсутствует в базе данных
Трек  3  отсутствует в базе данных
Трек  4  отсутствует в базе данных
Трек  5  отсутствует в базе данных
Трек  6  отсутствует в базе данных
Трек  7  отсутствует в базе данных
Трек  8  отсутствует в базе данных
Трек  9  отсутствует в базе данных
Трек 10  отсутствует в базе данных
Трек 11  отсутствует в базе данных
Трек 12  отсутствует в базе данных
Трек 13  отсутствует в базе данных
Трек 14  отсутствует в базе данных
 
Ни одного трека нет в базе AccurateRip

Конец отчёта

==== Контрольная сумма отчёта 03883F9D4E08A4CDFCAA8EA27254E3C31BA441C739ACCD7BED4FB9432A061713 ====

Код:

REM GENRE "Smooth Jazz"
REM DATE 2015
REM DISCID C811B90E
REM COMMENT "ExactAudioCopy v1.0b3"
PERFORMER "Bob Baldwin"
TITLE "MelloWonder/Songs In The Key Of Stevie"
FILE "Bob Baldwin - MelloWonder,Songs In The Key Of Stevie.flac" WAVE
  TRACK 01 AUDIO
    TITLE "THE REAL THING/KEEPING IT REAL (Featuring Chieli Minucci/Ragan Whiteside)"
    PERFORMER "Bob Baldwin"
    INDEX 01 00:00:00
  TRACK 02 AUDIO
    TITLE "Creepin'"
    PERFORMER "Bob Baldwin"
    INDEX 00 05:29:45
    INDEX 01 05:30:58
  TRACK 03 AUDIO
    TITLE "DON'T YOU WORRY 'BOUT A THING (Featuring Chieli Minucci)"
    PERFORMER "Bob Baldwin"
    INDEX 00 10:49:23
    INDEX 01 10:50:41
  TRACK 04 AUDIO
    TITLE "THAT GIRL (Featuring U-Nam)"
    PERFORMER "Bob Baldwin"
    INDEX 00 16:02:48
    INDEX 01 16:03:72
  TRACK 05 AUDIO
    TITLE "Lately/No More Tears"
    PERFORMER "Bob Baldwin"
    INDEX 00 22:01:18
    INDEX 01 22:01:55
  TRACK 06 AUDIO
    TITLE "Love's Light In Flight/Love Trippin'"
    PERFORMER "Bob Baldwin"
    INDEX 00 27:52:72
    INDEX 01 27:53:70
  TRACK 07 AUDIO
    TITLE "THE STEVIE WONDER MASHUP (Featuring Stanley Thompson and Toni Redd)"
    PERFORMER "Bob Baldwin"
    INDEX 00 34:06:23
    INDEX 01 34:07:64
  TRACK 08 AUDIO
    TITLE "Wonder Wander"
    PERFORMER "Bob Baldwin"
    INDEX 00 38:45:42
    INDEX 01 38:47:02
  TRACK 09 AUDIO
    TITLE "STEVIE (Featuring Marion Meadows)"
    PERFORMER "Bob Baldwin"
    INDEX 00 42:21:53
    INDEX 01 42:23:20
  TRACK 10 AUDIO
    TITLE "YOU AND I/THE WEDDING SUITE(Featuring Ryan Kilgore)"
    PERFORMER "Bob Baldwin"
    INDEX 00 48:21:58
    INDEX 01 48:23:17
  TRACK 11 AUDIO
    TITLE "Rocket Love/Back To Earth"
    PERFORMER "Bob Baldwin"
    INDEX 00 54:36:27
    INDEX 01 54:37:45
  TRACK 12 AUDIO
    TITLE "SUPERWOMAN (Featuring Ragan Whiteside)"
    PERFORMER "Bob Baldwin"
    INDEX 00 60:33:66
    INDEX 01 60:35:00
  TRACK 13 AUDIO
    TITLE "Looking For Another Pure Love"
    PERFORMER "Bob Baldwin"
    INDEX 00 66:44:01
    INDEX 01 66:45:23
  TRACK 14 AUDIO
    TITLE "Love's In Need Of Love Today"
    PERFORMER "Bob Baldwin"
    INDEX 00 70:42:04
    INDEX 01 70:43:03

Этот торрент недоступен для скачивания без регистрации, однако доступен по публичной magnet-ссылке (источники с публичных трекеров). Перед использованием ссылки прочтите, пожалуйста Пользовательское соглашение, а также как можно дольше оставайтесь на раздаче! Для того, чтобы скачать сам торрент-файл (который видит больше источников), а также для того, чтобы поблагодарить релизера, вам необходимо зарегистрироваться. Если регистрироваться лень - вы можете также попробовать скачать релиз по нашим партнерским ссылкам ниже. Кроме того, зарегистрированным пользователям не показывается всплывающая реклама при скачивании.

[underverse.su].t56125.torrent
Трекер: Зарегистрирован   [ 19.07.2015 04:06 ]  

Статус: проверено (by Бишеп at 19.07.2015 04:06)
Поблагодарили: пока никто не поблагодарил...
Тип торрента: публичный - доступные источники с открытых трекеров: 
Размер: 566 MB (занимает 0,13 DVDR, для записи нужно 1 болванка DVDR/RW)
 
 
Похожие темы
Форум Тема Автор Торрент Отв. Посл. сооб.
Сборники (Smooth Jazz, Lounge, Easy Listening) VA - Smooth Cocktail, Taste Of Lounge, Vol. 1 (Relaxing Appetizer, ChillOut Session Mojito) (2015) [MP3, 320 kbps CBR] Evgenii82
0 | 0

0 | 1135

11

17.01.2015 13:04

Jazz (Smooth Jazz, Funk) U-Nam - C'est Le Funk (2014) [FLAC (Image+.CUE), Lossless] Бишеп
0 | 0

0 | 1499

22

31.10.2014 13:34

Jazz (Smooth Jazz, Soul) Grover Washington Jr. - Коллекция (1971-2000) [MP3, 128-320 kbps CBR] Боцман
0 | 0

0 | 220

2

17.03.2018 17:35

Jazz (Smooth Jazz) Threestyle (Feat. Magdalena Chovancova) - Smooth Ride (2017) [MP3, 320 kbps CBR] Darkferse
1 | 0

0 | 788

4

19.03.2017 10:24

Jazz (Smooth Jazz) Marcus Anderson - Limited Edition (2017) [MP3, 320 kbps CBR] Darkferse
2 | 1

0 | 735

7

19.03.2017 11:17

Jazz (Smooth Jazz) William Staggers - Late Blossom (2017) [MP3, 320 kbps CBR] Darkferse
1 | 0

0 | 571

5

06.04.2017 16:38

Jazz (Smooth Jazz) Daniel Chia - In The Moment (2017) [MP3, 320 kbps CBR] Darkferse
2 | 0

0 | 603

3

06.04.2017 16:42

Jazz (Smooth Jazz) Gabriel Bello - Steveland (2017) [MP3, 320 kbps CBR] Darkferse
2 | 0

0 | 703

4

23.05.2017 09:40

Jazz (Smooth Jazz) Dexter Tolson - A Different Kind Of Smooth (2017) [MP3, 320 kbps CBR] Darkferse
2 | 0

0 | 608

5

30.05.2017 16:28

Jazz (Smooth Jazz) Jean-Michel Cabrol Jazz 4tet - La Route Bleue (2017) [MP3, 320 kbps CBR] Darkferse
2 | 0

0 | 279

4

12.12.2017 12:59


Яндекс.Метрика powered by Sphinx


В Н И М А Н И Е
Сайт не распространяет и не хранит электронные версии произведений, а лишь бесплатно и без коммерческой выгоды (не требуя взамен платы,
SMS и т.д.) предоставляет доступ к создаваемому пользователями каталогу ссылок на торрент-файлы, которые содержат только списки хеш-сумм.
Убедительная просьба с жалобами обращаться напрямую к пользователю, разместившему торрент файл.

Вверх