Loading...
Error

(Rock, Alternative Rock) Алиса - Блок Ада (2015) [FLAC (Image+.CUE), Lossless]

Статистика раздачи
Размер:  366 MB   |    Зарегистрирован:  2 года 10 месяцев   |    Скачан:  16 раз

Полного источника не было: 1 месяц 9 дней

Сидов:  0  |  0 KB/s  ]   Личеров:  0  |  0 KB/s  ]

* - сиды/пиры с внешних источников

   
 
Автор Сообщение

Бишеп Пол:Муж

19-Авг-2015 05:45

Алиса - Блок Ада

Жанр: Rock, Alternative Rock
Год выпуска: 2015
Источник: CD
Производитель диска: Мистерия звука CD-M+349-2
Аудиокодек: FLAC
Тип рипа: Image+.CUE
Битрейт аудио: lossless
Продолжительность: 00:44:26


Треклист:
01. Время менять имена
02. Компромисс
03. Cолнце встаёт
04. Эй, ты, там, на том берегу
05. Ветер перемен
06. Красное на чёрном
07. Воздух
08. Движение вспять
09. Земля

Код:

Exact Audio Copy V1.0 beta 3 from 29. August 2011

Отчёт EAC об извлечении, выполненном 17. августа 2015, 10:10

АлисА / БлокАда

Дисковод: Optiarc DVD RW AD-5280S   Adapter: 1  ID: 1

Режим чтения                 : Достоверность
Использование точного потока : Да
Отключение кэша аудио        : Да
Использование указателей C2  : Нет

Коррекция смещения при чтении                     : 48
Способность читать области Lead-in и Lead-out     : Нет
Заполнение пропущенных сэмплов тишиной            : Да
Удаление блоков с тишиной в начале и конце        : Нет
При вычислениях CRC использовались нулевые сэмплы : Да
Интерфейс                                         : Встроенный Win32-интерфейс для Win NT/2000

Выходной формат : Внутренние WAV-операции
Формат сэмплов  : 44.100 Гц; 16 бит; стерео

TOC извлечённого CD

     Трек |   Старт  | Длительность | Начальный сектор | Конечный сектор
    ---------------------------------------------------------------------
       1  |  0:00.00 |    3:41.07   |           0      |      16581     
       2  |  3:41.07 |    4:12.48   |       16582      |      35529     
       3  |  7:53.55 |    5:47.52   |       35530      |      61606     
       4  | 13:41.32 |    2:58.18   |       61607      |      74974     
       5  | 16:39.50 |    5:19.26   |       74975      |      98925     
       6  | 21:59.01 |    4:59.43   |       98926      |     121393     
       7  | 26:58.44 |    5:49.38   |      121394      |     147606     
       8  | 32:48.07 |    5:12.57   |      147607      |     171063     
       9  | 38:00.64 |    6:24.52   |      171064      |     199915     

Характеристики диапазона извлечения и сообщения об ошибках

Выбранный диапазон

     Имя файла E:\Lossless\АлисА - блокАда\АлисА - БлокАда.wav

     Пиковый уровень 98.7 %
     Скорость извлечения 3.9 X
     Качество диапазона 100.0 %
     CRC теста 274D0503
     CRC копии 274D0503
     Копирование... OK

Ошибок не произошло

 
AccurateRip: сводка
 
Трек  1  отсутствует в базе данных
Трек  2  отсутствует в базе данных
Трек  3  отсутствует в базе данных
Трек  4  отсутствует в базе данных
Трек  5  отсутствует в базе данных
Трек  6  отсутствует в базе данных
Трек  7  отсутствует в базе данных
Трек  8  отсутствует в базе данных
Трек  9  отсутствует в базе данных
 
Ни одного трека нет в базе AccurateRip

Конец отчёта

==== Контрольная сумма отчёта 6D0C753F4076550E6547A643B0FC1243C1DC8C110BFC3E69BAFDCD6929668D88 ====

Код:

REM GENRE Rock
REM DATE 1987
REM DISCID 570A6909
REM COMMENT "ExactAudioCopy v1.0b3"
PERFORMER "АлисА"
TITLE "БлокАда"
FILE "БлокАда (Мистерия звука 2015).flac" WAVE
  TRACK 01 AUDIO
    TITLE "Время менять имена"
    FLAGS DCP
    INDEX 01 00:00:00
  TRACK 02 AUDIO
    TITLE "Компромисс"
    FLAGS DCP
    INDEX 00 03:40:07
    INDEX 01 03:41:07
  TRACK 03 AUDIO
    TITLE "Cолнце встаёт"
    FLAGS DCP
    INDEX 00 07:51:55
    INDEX 01 07:53:55
  TRACK 04 AUDIO
    TITLE "Эй, ты, там, на том берегу"
    FLAGS DCP
    INDEX 00 13:39:32
    INDEX 01 13:41:32
  TRACK 05 AUDIO
    TITLE "Ветер перемен"
    FLAGS DCP
    INDEX 00 16:37:50
    INDEX 01 16:39:50
  TRACK 06 AUDIO
    TITLE "Красное на чёрном"
    FLAGS DCP
    INDEX 00 21:57:01
    INDEX 01 21:59:01
  TRACK 07 AUDIO
    TITLE "Воздух"
    FLAGS DCP
    INDEX 00 26:56:44
    INDEX 01 26:58:44
  TRACK 08 AUDIO
    TITLE "Движение вспять"
    FLAGS DCP
    INDEX 00 32:46:07
    INDEX 01 32:48:07
  TRACK 09 AUDIO
    TITLE "Земля"
    FLAGS DCP
    INDEX 01 38:00:64

Этот торрент недоступен для скачивания без регистрации, однако доступен по публичной magnet-ссылке (источники с публичных трекеров). Перед использованием ссылки прочтите, пожалуйста Пользовательское соглашение, а также как можно дольше оставайтесь на раздаче! Для того, чтобы скачать сам торрент-файл (который видит больше источников), а также для того, чтобы поблагодарить релизера, вам необходимо зарегистрироваться. Если регистрироваться лень - вы можете также попробовать скачать релиз по нашим партнерским ссылкам ниже. Кроме того, зарегистрированным пользователям не показывается всплывающая реклама при скачивании.

[underverse.su].t57261.torrent
Трекер: Зарегистрирован   [ 19.08.2015 05:45 ]  

Статус: проверено (by Бишеп at 19.08.2015 05:45)
Поблагодарили: пока никто не поблагодарил...
Тип торрента: публичный - доступные источники с открытых трекеров: 
Размер: 366 MB (занимает 0,08 DVDR, для записи нужно 1 болванка DVDR/RW)
 
 
Похожие темы
Форум Тема Автор Торрент Отв. Посл. сооб.
Зарубежный Punk, Hardcore, Grunge, Alternative (Rock, Alternative, Soft rock) Bertrand Cantat - Amor Fati (2017) [MP3, 320 kbps CBR] Darkferse
7 | 0

0 | 358

2

07.12.2017 23:28

Отечественный Punk, Grunge, Alternative (Rock, Alternative Rock) Ю-Питер - Гудгора (2015) [MP3, 320 kbps] terra07
21 | 0

0 | 1159

13

02.03.2015 20:48

Зарубежный Punk, Grunge, Alternative (Lossless) (Rock, Alternative Rock, Garage Punk) Oh Sees (Thee Oh Sees) - Orc (2017) [FLAC (Tracks), Lossless] Web Бишеп
7 | 0

0 | 428

1

20.02.2018 19:10

Отечественный Punk, Grunge, Alternative (Lossless) (Rock, Alternative Rock) Чиж & Co - Бомбардировщики (1997) [FLAC (Tracks+.CUE), Lossless] Бишеп
1 | 0

0 | 922

4

28.01.2017 14:41

Отечественный Punk, Grunge, Alternative (Lossless) (Rock, Alternative Rock) ЗОО-Парк - реМАЙК (2000) [FLAC (Image+.Cue), Lossless] Бишеп
6 | 0

0 | 348

2

12.02.2018 06:26

Архив (рок) (Rock, Alternative) Three Days Grace - Three Days Grace (2003) [MP3, 320 kbps] M-i-i-i-ke
0 | 0

1 | 1543

0

17.02.2011 14:46

Архив (рок) (Rock, Alternative) Three Days Grace - One-X (2006) [MP3, 192 kbps] M-i-i-i-ke
0 | 0

2 | 1990

1

17.02.2011 14:46

Архив (рок) (Rock, Alternative) Three Days Grace - Life Starts Now (2009) [MP3, 320 kbps] M-i-i-i-ke
0 | 0

1 | 1431

7

16.06.2011 08:09

Архив (HQ рок) (Rock, Alternative Rock) Алиса - Саботаж (2012) [WAVPack (Image+.CUE), Lossless] Бишеп
0 | 0

1 | 1131

5

25.05.2018 15:49


Яндекс.Метрика powered by Sphinx


В Н И М А Н И Е
Сайт не распространяет и не хранит электронные версии произведений, а лишь бесплатно и без коммерческой выгоды (не требуя взамен платы,
SMS и т.д.) предоставляет доступ к создаваемому пользователями каталогу ссылок на торрент-файлы, которые содержат только списки хеш-сумм.
Убедительная просьба с жалобами обращаться напрямую к пользователю, разместившему торрент файл.

Вверх