Loading...
Error

Мумитролли на Ривьере / Muumit Rivieralla (Ксавьер Пикард, Ханна Хемила) [2014 г., мультфильм, комедия, семейный, BDRip 1080p] Dub + Original

Статистика раздачи
Размер:  4,97 GB   |    Зарегистрирован:  2 года 10 месяцев   |    Скачан:  14 раз
Сидов:  1  |  0 KB/s  ]   Личеров:  0  |  0 KB/s  ]

* - сиды/пиры с внешних источников

   
 
Автор Сообщение

makkol Пол:Муж

21-Авг-2015 14:45

Мумитролли на Ривьере / Muumit Rivieralla


Год выпуска: 2014
Жанр: мультфильм, комедия, семейный
Производство: Финляндия , Франция [Handle Productions, Moomin Characters, Pictak]
Режиссер: Ксавьер Пикард, Ханна Хемила
Роли озвучивали: Мария Сид, Матс Лонгбака, Кристофер Гуммерус, Альма Пёвсти, Рагни Грёнблом, Carl-Kristian Rundman, Ирина Бьёрклунд, Christoffer Strandberg, C.G. Wenzel, Беата Харью
Сюжет фильма:
В фильме Муми-тролли на Ривьере, вся семья Муми-троллей отправляется в увлекательное путешествие по роскошной Ривьере. Фрекен Снорк ослеплена вниманием богатого повесы, и Муми-тролль узнает, что такое ревность. После того, как Муми-папа становится другом аристократа и берет себе имя де Муми, уставшая Муми-мама возвращается к спокойной жизни на их старой лодке и ждет, когда образумятся остальные члены семьи. Впервые в жизни единство семьи Муми оказывается под угрозой.

  • Мировая премьера: 10 октября 2014


Качество видео: BDRip 1080p

Продолжительность: 01:16:00
Формат: MKV
Видео: MPEG-4 AVC, 1920x1040 (1,85:1), 23.976 fps, 8300 kbps
Аудио #1: русский, дублированный (лицензия), AC3 2.0, 48 kHz, 192 kbps
Аудио #2: финский, оригинал, DTS 5.1, 48 kHz, 768 kbps

Код:

General
Unique ID                                : 250319917556560935609685586531884352021 (0xBC51DCCC22E376189F88CBA81F064215)
Complete name                            : Muumit Rivieralla BDRip 1080p.D.2014.mkv
Format                                   : Matroska
Format version                           : Version 2
File size                                : 4.97 GiB
Duration                                 : 1h 16mn
Overall bit rate                         : 9 263 Kbps
Encoded date                             : UTC 2015-08-16 11:14:41
Writing application                      : mkvmerge v8.3.0 ('Over the Horizon') 64bit
Writing library                          : libebml v1.3.1 + libmatroska v1.4.2
DURATION                                 : 01:16:46.727000000
NUMBER_OF_FRAMES                         : 110451
NUMBER_OF_BYTES                          : 4780221295
_STATISTICS_WRITING_APP                  : mkvmerge v8.3.0 ('Over the Horizon') 64bit
_STATISTICS_WRITING_DATE_UTC             : 2015-08-16 11:14:41
_STATISTICS_TAGS                         : BPS DURATION NUMBER_OF_FRAMES NUMBER_OF_BYTES

Video
ID                                       : 1
Format                                   : AVC
Format/Info                              : Advanced Video Codec
Format profile                           : High@L4.1
Format settings, CABAC                   : Yes
Format settings, ReFrames                : 4 frames
Codec ID                                 : V_MPEG4/ISO/AVC
Duration                                 : 1h 16mn
Bit rate                                 : 8 300 Kbps
Width                                    : 1 920 pixels
Height                                   : 1 040 pixels
Display aspect ratio                     : 1.85:1
Frame rate mode                          : Constant
Frame rate                               : 23.976 fps
Color space                              : YUV
Chroma subsampling                       : 4:2:0
Bit depth                                : 8 bits
Scan type                                : Progressive
Bits/(Pixel*Frame)                       : 0.173
Stream size                              : 4.35 GiB (88%)
Writing library                          : x264 core 144 r2525 40bb568
Encoding settings                        : cabac=1 / ref=4 / deblock=1:1:1 / analyse=0x3:0x133 / me=esa / subme=10 / psy=1 / psy_rd=0.40:0.00 / mixed_ref=1 / me_range=24 / chroma_me=1 / trellis=2 / 8x8dct=1 / cqm=0 / deadzone=21,11 / fast_pskip=0 / chroma_qp_offset=-2 / threads=12 / lookahead_threads=3 / sliced_threads=0 / slices=2 / nr=0 / decimate=1 / interlaced=0 / bluray_compat=0 / constrained_intra=0 / bframes=10 / b_pyramid=2 / b_adapt=2 / b_bias=0 / direct=3 / weightb=1 / open_gop=0 / weightp=2 / keyint=240 / keyint_min=23 / scenecut=40 / intra_refresh=0 / rc_lookahead=60 / rc=2pass / mbtree=1 / bitrate=8300 / ratetol=1.0 / qcomp=0.60 / qpmin=0 / qpmax=69 / qpstep=4 / cplxblur=20.0 / qblur=0.5 / vbv_maxrate=62500 / vbv_bufsize=78125 / nal_hrd=none / filler=0 / ip_ratio=1.40 / aq=1:0.60
Default                                  : Yes
Forced                                   : No

Audio #1
ID                                       : 2
Format                                   : AC-3
Format/Info                              : Audio Coding 3
Mode extension                           : CM (complete main)
Format settings, Endianness              : Big
Codec ID                                 : A_AC3
Duration                                 : 1h 16mn
Bit rate mode                            : Constant
Bit rate                                 : 192 Kbps
Channel count                            : 2 channels
Channel positions                        : Front: L R
Sampling rate                            : 48.0 KHz
Bit depth                                : 16 bits
Compression mode                         : Lossy
Stream size                              : 105 MiB (2%)
Language                                 : Russian
Default                                  : Yes
Forced                                   : No

Audio #2
ID                                       : 3
Format                                   : DTS
Format/Info                              : Digital Theater Systems
Mode                                     : 16
Format settings, Endianness              : Big
Codec ID                                 : A_DTS
Duration                                 : 1h 16mn
Bit rate mode                            : Constant
Bit rate                                 : 768 Kbps
Channel count                            : 6 channels
Channel positions                        : Front: L C R, Side: L R, LFE
Sampling rate                            : 48.0 KHz
Bit depth                                : 24 bits
Compression mode                         : Lossy
Stream size                              : 422 MiB (8%)
Language                                 : Finnish
Default                                  : No
Forced                                   : No
picpicpicpic
Для увеличения картинки щелкните мышкой по превью

Этот торрент недоступен для скачивания без регистрации, однако доступен по публичной magnet-ссылке (источники с публичных трекеров). Перед использованием ссылки прочтите, пожалуйста Пользовательское соглашение, а также как можно дольше оставайтесь на раздаче! Для того, чтобы скачать сам торрент-файл (который видит больше источников), а также для того, чтобы поблагодарить релизера, вам необходимо зарегистрироваться. Если регистрироваться лень - вы можете также попробовать скачать релиз по нашим партнерским ссылкам ниже. Кроме того, зарегистрированным пользователям не показывается всплывающая реклама при скачивании.

[underverse.su].t57311.torrent
Трекер: Зарегистрирован   [ 21.08.2015 14:45 ]  

Статус: проверено (by makkol at 22.08.2015 10:27)
Поблагодарили: 2 человека
Тип торрента: публичный - доступные источники с открытых трекеров: 
Размер: 4,97 GB (занимает 1,13 DVDR, для записи нужно 2 болванки DVDR/RW)
 
 
Похожие темы
Форум Тема Автор Торрент Отв. Посл. сооб.
Зарубежные мультфильмы Мумитролли на Ривьере / Muumit Rivieralla (Ксавьер Пикард, Ханна Хемила) [2014 г., мультфильм, комедия, семейный, HDRip] Dub (Rus) + Lith makkol
6 | 0

0 | 818

41

21.08.2015 14:33

Mumintroll Пол:Муж

09-Сен-2017 19:11

Где бы найти русские/английские субтитры к этому замечательному релизу? Очень хочется посмотреть в оригинале.

Яндекс.Метрика powered by Sphinx


В Н И М А Н И Е
Сайт не распространяет и не хранит электронные версии произведений, а лишь бесплатно и без коммерческой выгоды (не требуя взамен платы,
SMS и т.д.) предоставляет доступ к создаваемому пользователями каталогу ссылок на торрент-файлы, которые содержат только списки хеш-сумм.
Убедительная просьба с жалобами обращаться напрямую к пользователю, разместившему торрент файл.

Вверх