Loading...
Error

Полтергейст / Poltergeist (Гил Кинан) [2015 г., ужасы, триллер, Blu-Ray Remux] Extended Cut | iTunes | Dub (Rus) + Dub (Ukr) + Original + Subs

Статистика раздачи
Размер:  27,14 GB   |    Зарегистрирован:  2 года 9 месяцев   |    Скачан:  9 раз

Полного источника не было: 6 месяцев

Сидов:  0  |  0 KB/s  ]   Личеров:  0  |  0 KB/s  ]

* - сиды/пиры с внешних источников

   
 
Автор Сообщение

ultarasbarcelona Пол:Муж

18-Сен-2015 17:45

Полтергейст / Poltergeist


Год выпуска: 2015
Жанр: ужасы, триллер
Страна: США , Канада
Режиссер: Гил Кинан
В ролях: Сэм Рокуэлл, Розмари ДеУитт, Саксон Шарбино, Кайл Кэтлетт, Кеннеди Клементс, Джаред Харрис, Джейн Адамс, Сьюзэн Хэйард, Николас Браун, Карен Ивани
Сюжет фильма:
Когда страшные призраки забирают младшую дочь, семье приходится объединиться, чтобы спасти ее...

Качество видео: Blu-Ray Remux

Продолжительность: 1:40:53
Формат: m2ts
Видео: MPEG-4 AVC, 1920x1080, 30699 kbps
Аудио #1: Русский, Дублированный [iTunes], AC3 5.1, 384 kbps
Аудио #2: Украинский, Дублированный [iTunes], AC3 5.1, 192 kbps
Аудио #3: Английский, Оригинал, DTS 5.1, 5111 kbps
Аудио #4: Английский, Оригинал, AC3 5.1, 448 kbps
Субтитры #1: Russian (iTunes)
Субтитры #2: Ukrainian (iTunes)
Субтитры #3: English (SDH)

Код:

DISC INFO:

Disc Title: Poltergeist.2015.EXTENDED.COMPLETE.BLURAY-HDCLUB
Disc Size: 39 351 736 145 bytes
Protection: AACS
BD-Java: Yes
BDInfo: 0.5.8

PLAYLIST REPORT:

Name: 00801.MPLS
Length: 1:40:53.255 (h:m:s.ms)
Size: 33 432 305 664 bytes
Total Bitrate: 44,18 Mbps

(*) Indicates included stream hidden by this playlist.

VIDEO:

Codec Bitrate Deion
----- ------- -----------
MPEG-4 AVC Video 30699 kbps 1080p / 23,976 fps / 16:9 / High Profile 4.1

AUDIO:

Codec Language Bitrate Deion
----- -------- ------- -----------
DTS-HD Master Audio English 5111 kbps 7.1 / 48 kHz / 5111 kbps / 24-bit (DTS Core: 5.1-ES / 48 kHz / 1509 kbps / 24-bit)
DTS Audio French 768 kbps 5.1 / 48 kHz / 768 kbps / 24-bit
DTS Audio German 768 kbps 5.1 / 48 kHz / 768 kbps / 24-bit
DTS Audio Italian 768 kbps 5.1 / 48 kHz / 768 kbps / 24-bit
DTS Audio Spanish 768 kbps 5.1 / 48 kHz / 768 kbps / 24-bit
* Dolby Digital Audio English 448 kbps 5.1 / 48 kHz / 448 kbps
Dolby Digital Audio French 448 kbps 5.1 / 48 kHz / 448 kbps
Dolby Digital Audio Hindi 448 kbps 5.1 / 48 kHz / 448 kbps
Dolby Digital Audio Portuguese 448 kbps 5.1 / 48 kHz / 448 kbps
Dolby Digital Audio Spanish 448 kbps 5.1 / 48 kHz / 448 kbps

SUBTITLES:

Codec Language Bitrate Deion
----- -------- ------- -----------
Presentation Graphics English 38,572 kbps
Presentation Graphics Arabic 16,436 kbps
Presentation Graphics Chinese 23,633 kbps
Presentation Graphics Danish 29,325 kbps
Presentation Graphics Dutch 23,566 kbps
Presentation Graphics Finnish 24,012 kbps
Presentation Graphics French 29,283 kbps
Presentation Graphics French 23,316 kbps
Presentation Graphics German 30,193 kbps
Presentation Graphics Hindi 25,461 kbps
Presentation Graphics Italian 28,123 kbps
Presentation Graphics Norwegian 25,507 kbps
Presentation Graphics Portuguese 26,282 kbps
Presentation Graphics Spanish 28,688 kbps
Presentation Graphics Spanish 29,159 kbps
Presentation Graphics Swedish 25,205 kbps
Presentation Graphics Tamil 39,210 kbps
Presentation Graphics Telugu 28,553 kbps
Presentation Graphics Turkish 31,023 kbps

FILES:

Name Time In Length Size Total Bitrate
---- ------- ------ ---- -------------
02121.M2TS 0:00:00.000 0:06:56.165 2 302 937 088 44 270
02113.M2TS 0:06:56.165 0:02:59.762 994 449 408 44 256
02123.M2TS 0:09:55.928 0:01:40.475 549 169 152 43 726
02114.M2TS 0:11:36.404 0:05:17.442 1 743 108 096 43 929
02125.M2TS 0:16:53.846 0:16:49.508 5 567 348 736 44 119
02115.M2TS 0:33:43.354 0:01:31.925 509 128 704 44 308
02127.M2TS 0:35:15.279 0:00:51.843 292 325 376 45 109
02116.M2TS 0:36:07.123 0:00:37.579 209 811 456 44 665
02129.M2TS 0:36:44.702 0:07:03.798 2 363 498 496 44 616
02117.M2TS 0:43:48.500 0:00:59.726 338 946 048 45 400
02131.M2TS 0:44:48.227 0:02:04.666 696 754 176 44 712
02118.M2TS 0:46:52.893 0:00:23.565 134 498 304 45 660
02133.M2TS 0:47:16.458 0:21:19.027 7 093 303 296 44 367
02119.M2TS 1:08:35.486 0:00:43.084 236 175 360 43 853
02135.M2TS 1:09:18.570 0:22:42.986 7 677 063 168 45 060
02120.M2TS 1:32:01.557 0:00:24.566 140 027 904 45 600
02137.M2TS 1:32:26.123 0:08:27.131 2 583 760 896 40 759

PLAYLIST REPORT:

Name: 00800.MPLS
Length: 1:33:41.157 (h:m:s.ms)
Size: 31 053 692 928 bytes
Total Bitrate: 44,20 Mbps

VIDEO:

Codec Bitrate Deion
----- ------- -----------
MPEG-4 AVC Video 30677 kbps 1080p / 23,976 fps / 16:9 / High Profile 4.1

AUDIO:

Codec Language Bitrate Deion
----- -------- ------- -----------
DTS-HD Master Audio English 5141 kbps 7.1 / 48 kHz / 5141 kbps / 24-bit (DTS Core: 5.1-ES / 48 kHz / 1509 kbps / 24-bit)
DTS Audio French 768 kbps 5.1 / 48 kHz / 768 kbps / 24-bit
DTS Audio German 768 kbps 5.1 / 48 kHz / 768 kbps / 24-bit
DTS Audio Italian 768 kbps 5.1 / 48 kHz / 768 kbps / 24-bit
DTS Audio Spanish 768 kbps 5.1 / 48 kHz / 768 kbps / 24-bit
Dolby Digital Audio English 448 kbps 5.1 / 48 kHz / 448 kbps
Dolby Digital Audio French 448 kbps 5.1 / 48 kHz / 448 kbps
Dolby Digital Audio Hindi 448 kbps 5.1 / 48 kHz / 448 kbps
Dolby Digital Audio Portuguese 448 kbps 5.1 / 48 kHz / 448 kbps
Dolby Digital Audio Spanish 448 kbps 5.1 / 48 kHz / 448 kbps

SUBTITLES:

Codec Language Bitrate Deion
----- -------- ------- -----------
Presentation Graphics English 38,769 kbps
Presentation Graphics Arabic 16,429 kbps
Presentation Graphics Chinese 24,059 kbps
Presentation Graphics Danish 29,501 kbps
Presentation Graphics Dutch 23,717 kbps
Presentation Graphics Finnish 23,905 kbps
Presentation Graphics French 29,317 kbps
Presentation Graphics French 23,226 kbps
Presentation Graphics German 30,298 kbps
Presentation Graphics Hindi 25,611 kbps
Presentation Graphics Italian 28,256 kbps
Presentation Graphics Norwegian 25,434 kbps
Presentation Graphics Portuguese 26,244 kbps
Presentation Graphics Spanish 28,878 kbps
Presentation Graphics Spanish 29,404 kbps
Presentation Graphics Swedish 25,127 kbps
Presentation Graphics Tamil 39,417 kbps
Presentation Graphics Telugu 28,427 kbps
Presentation Graphics Turkish 31,210 kbps

FILES:

Name Time In Length Size Total Bitrate
---- ------- ------ ---- -------------
02121.M2TS 0:00:00.000 0:06:56.165 2 302 937 088 44 270
02122.M2TS 0:06:56.165 0:00:34.367 190 414 848 44 324
02123.M2TS 0:07:30.533 0:01:40.475 549 169 152 43 726
02124.M2TS 0:09:11.008 0:02:39.617 884 729 856 44 342
02125.M2TS 0:11:50.626 0:16:49.508 5 567 348 736 44 119
02126.M2TS 0:28:40.135 0:00:28.319 157 065 216 44 369
02127.M2TS 0:29:08.454 0:00:51.843 292 325 376 45 109
02128.M2TS 0:30:00.298 0:00:35.994 202 573 824 45 024
02129.M2TS 0:30:36.292 0:07:03.798 2 363 498 496 44 616
02130.M2TS 0:37:40.091 0:00:22.772 129 785 856 45 593
02131.M2TS 0:38:02.863 0:02:04.666 696 754 176 44 712
02132.M2TS 0:40:07.529 0:00:28.445 161 992 704 45 559
02133.M2TS 0:40:35.975 0:21:19.027 7 093 303 296 44 367
02134.M2TS 1:01:55.002 0:00:19.894 109 449 216 44 011
02135.M2TS 1:02:14.897 0:22:42.986 7 677 063 168 45 060
02136.M2TS 1:24:57.884 0:00:16.141 91 521 024 45 360
02137.M2TS 1:25:14.025 0:08:27.131 2 583 760 896 40 759
Релиз группы:

picpicpic
Для увеличения картинки щелкните мышкой по превью

Этот торрент недоступен для скачивания без регистрации, однако доступен по публичной magnet-ссылке (источники с публичных трекеров). Перед использованием ссылки прочтите, пожалуйста Пользовательское соглашение, а также как можно дольше оставайтесь на раздаче! Для того, чтобы скачать сам торрент-файл (который видит больше источников), а также для того, чтобы поблагодарить релизера, вам необходимо зарегистрироваться. Если регистрироваться лень - вы можете также попробовать скачать релиз по нашим партнерским ссылкам ниже. Кроме того, зарегистрированным пользователям не показывается всплывающая реклама при скачивании.

[underverse.su].t58378.torrent
Трекер: Зарегистрирован   [ 18.09.2015 17:45 ]  

Статус: проверено (by makkol at 18.09.2015 18:04)
Поблагодарили: пока никто не поблагодарил...
Тип торрента: публичный - доступные источники с открытых трекеров: 
Размер: 27,14 GB (занимает 6,2 DVDR, для записи нужно 7 болванок DVDR/RW)
 
 
Похожие темы
Форум Тема Автор Торрент Отв. Посл. сооб.
T Зарубежное кино [DVDRip, Low-Res HDRip, и т.д.] Полтергейст / Poltergeist (Гил Кинан) [2015 г., ужасы, триллер, HDTVRip] Dub (Line) makkol
41 | 0

0 | 883

46

25.06.2015 22:20

Зарубежное кино [DVDRip, Low-Res HDRip, и т.д.] Полтергейст / Неприглашенные / The Uninvited / Victim of the Haunt (Ларри Шоу) [1996 г., ужасы, триллер, DVDRip] VO + Original makkol
2 | 1

0 | 905

3

23.07.2015 12:20

T Зарубежное кино [DVDRip, Low-Res HDRip, и т.д.] Полтергейст (Расширенная версия) / Poltergeist (Extended Cut) (Гил Кинан) [2015 г., ужасы, триллер, WEB-DLRip] Dub makkol
1 | 0

0 | 640

17

04.09.2015 14:00

T Зарубежное кино [HDDVDRip / BDRip / WEB-DL / HDTV 1080/720р] Полтергейст / Poltergeist (Гил Кинан) [2015 г., ужасы, триллер, HDTVRip 1080p] Dub (Line) + Original makkol
9 | 0

0 | 914

17

25.06.2015 22:35

T Зарубежное кино [HDDVDRip / BDRip / WEB-DL / HDTV 1080/720р] Полтергейст / Poltergeist (Гил Кинан) [2015 г., ужасы, триллер, HDTVRip 720p] Dub (Line) + Original makkol
5 | 0

0 | 679

10

25.06.2015 22:50

T Зарубежное кино [HDDVDRip / BDRip / WEB-DL / HDTV 1080/720р] Полтергейст (Расширенная версия) / Poltergeist (Extended Cut) (Гил Кинан) [2015 г., ужасы, триллер, WEB-DL 720p] Dub makkol
2 | 0

0 | 486

13

04.09.2015 14:11

T Архив (художественные фильмы) Полтергейст / Poltergeist (Гил Кинан) [2015 г., ужасы, триллер, HDTVRip] Dub (звук с CAMRip) + Original makkol
0 | 0

1 | 761

12

24.05.2018 21:20

Архив (Сериалы) Полтергейст: Наследие / Poltergeist: The Legacy / Сезон 1 / Серии 1-22 (Jerry Ciccoritti) [1996 г., мистика, фантастика, ужасы, DVDRip] Joey
1 | 0

2 | 1351

5

30.08.2010 00:06

Архив (зарубежное кино высокого качества) Полтергейст. Трилогия / Poltergeist. Trilogy (Тоб Хупер, Брайан Гибсон, Гэри Шерман) [1982-1988 г., Ужасы, BDRip 720p] MVO (Rus) + AVO (Rus, Либергал, Визгунов) + Original (Eng) + Subs (Rus, Eng) Ведьмочка
1 | 0

1 | 1236

8

24.05.2018 22:56

T Архив (зарубежное кино высокого качества) Полтергейст / Poltergeist (Гил Кинан) [2015 г., ужасы, триллер, HDTVRip 1080p] Dub (звук с CAMRip) + Original makkol
0 | 0

1 | 713

5

31.01.2018 18:07


Яндекс.Метрика powered by Sphinx


В Н И М А Н И Е
Сайт не распространяет и не хранит электронные версии произведений, а лишь бесплатно и без коммерческой выгоды (не требуя взамен платы,
SMS и т.д.) предоставляет доступ к создаваемому пользователями каталогу ссылок на торрент-файлы, которые содержат только списки хеш-сумм.
Убедительная просьба с жалобами обращаться напрямую к пользователю, разместившему торрент файл.

Вверх