Loading...
Error

(Gothic, Darkwave) Diary of Dreams - (if) (2009) [APE (Image+.CUE), lossless]

Статистика раздачи
Размер:  400 MB   |    Зарегистрирован:  2 года 5 месяцев   |    Скачан:  1 раз

Полного источника не было: 2 года 2 месяца

Сидов:  0  |  0 KB/s  ]   Личеров:  0  |  0 KB/s  ]

* - сиды/пиры с внешних источников

   
 
Автор Сообщение

Skorbez Пол:Муж

15-Фев-2016 10:55

Diary of Dreams - (if)

Жанр: Gothic, Darkwave
Год выпуска: 2009
Источник: CD
Производитель: IROND CD 09 - 1570
Аудиокодек: APE
Тип рипа: Image+.CUE
Битрейт: lossless
Продолжительность: 1:05:02

Треклист:

01. the Wedding
02. Requiem 4.21
03. Odyssey Asylum
04. Poison Breed
05. Wahn!Sinn?
06. the Colors of Grey
07. Choir Hotel
08. the Chain
09. King of Nowhere
10. 21 Grams of Nothing
11. Mind over Matter
12. Kingdom of Greed

Код:

Exact Audio Copy V1.1 from 23. June 2015

Отчёт EAC об извлечении, выполненном 15. февраля 2016, 13:32

Diary of Dreams / (If)

Дисковод: hp      DVD RW AD-7740H   Adapter: 1  ID: 0

Режим чтения                 : Достоверность
Использование точного потока : Да
Отключение кэша аудио        : Да
Использование указателей C2  : Нет

Коррекция смещения при чтении                     : 48
Способность читать области Lead-in и Lead-out     : Нет
Заполнение пропущенных сэмплов тишиной            : Да
Удаление блоков с тишиной в начале и конце        : Нет
При вычислениях CRC использовались нулевые сэмплы : Да
Интерфейс                                         : Встроенный Win32-интерфейс для Win NT/2000

Выходной формат          : Пользовательский кодировщик
Выбранный битрейт        : 768 kBit/s
Качество                 : Высокий
Добавление ID3-тега      : Нет
Утилита сжатия           : C:\Program Files (x86)\Monkey's Audio\MAC.exe
Дополнительные параметры : %source% %dest% -c3000

TOC извлечённого CD

     Трек |   Старт  | Длительность | Начальный сектор | Конечный сектор
    ---------------------------------------------------------------------
       1  |  0:00.00 |    5:46.60   |           0      |      26009     
       2  |  5:46.60 |    5:30.61   |       26010      |      50820     
       3  | 11:17.46 |    4:38.60   |       50821      |      71730     
       4  | 15:56.31 |    4:49.49   |       71731      |      93454     
       5  | 20:46.05 |    4:40.38   |       93455      |     114492     
       6  | 25:26.43 |    6:40.28   |      114493      |     144520     
       7  | 32:06.71 |    6:16.68   |      144521      |     172788     
       8  | 38:23.64 |    5:03.70   |      172789      |     195583     
       9  | 43:27.59 |    5:13.03   |      195584      |     219061     
      10  | 48:40.62 |    4:04.25   |      219062      |     237386     
      11  | 52:45.12 |    7:00.21   |      237387      |     268907     
      12  | 59:45.33 |    5:17.39   |      268908      |     292721     

Характеристики диапазона извлечения и сообщения об ошибках

Выбранный диапазон

     Имя файла D:\Documents\Раздачи\Diary of Dreams - (if)\Diary of Dreams - (If).wav

     Пиковый уровень 97.7 %
     Скорость извлечения 2.1 X
     Качество диапазона 100.0 %
     CRC теста 4F74C9D5
     CRC копии 4F74C9D5
     Копирование... OK

Ошибок не произошло

 
AccurateRip: сводка
 
Трек  1  : извлечено точно (доверие 3)  [EA4A47DC]  (AR v1)
Трек  2  : извлечено точно (доверие 2)  [CED6D3D0]  (AR v1)
Трек  3  : извлечено точно (доверие 2)  [1FBC0AD8]  (AR v1)
Трек  4  : извлечено точно (доверие 2)  [8C8D8E0F]  (AR v1)
Трек  5  : извлечено точно (доверие 2)  [08098D9D]  (AR v1)
Трек  6  : извлечено точно (доверие 2)  [F3055902]  (AR v1)
Трек  7  : извлечено точно (доверие 2)  [8FC786C3]  (AR v1)
Трек  8  : извлечено точно (доверие 2)  [AB0AA24C]  (AR v1)
Трек  9  : извлечено точно (доверие 2)  [055AD131]  (AR v1)
Трек 10  : извлечено точно (доверие 2)  [D4C1F615]  (AR v1)
Трек 11  : извлечено точно (доверие 2)  [E350A1DE]  (AR v1)
Трек 12  : извлечено точно (доверие 2)  [FD1C6846]  (AR v1)
 
Все треки извлечены точно

Конец отчёта

---- CUETools DB Plugin V2.1.6

[CTDB TOCID: LlOsJKvPpe5AQPJPkWhjNEFJf.U-] found
Submit result: LlOsJKvPpe5AQPJPkWhjNEFJf.U- has been confirmed
Track | CTDB Status
  1   | (24/24) Accurately ripped
  2   | (24/24) Accurately ripped
  3   | (24/24) Accurately ripped
  4   | (24/24) Accurately ripped
  5   | (24/24) Accurately ripped
  6   | (24/24) Accurately ripped
  7   | (24/24) Accurately ripped
  8   | (24/24) Accurately ripped
  9   | (24/24) Accurately ripped
 10   | (24/24) Accurately ripped
 11   | (24/24) Accurately ripped
 12   | (24/24) Accurately ripped

==== Контрольная сумма отчёта C6441F84BBE2B7A60B57D8F5106DECB46472B869179F7DFDC9C902A2A388C643 ====

Код:

REM DATE 2009
REM DISCID C20F3E0C
REM COMMENT "ExactAudioCopy v1.1"
PERFORMER "Diary of Dreams"
TITLE "(If)"
FILE "Diary of Dreams - (If).ape" WAVE
  TRACK 01 AUDIO
    TITLE "the Wedding"
    PERFORMER "Diary of Dreams "
    INDEX 01 00:00:00
  TRACK 02 AUDIO
    TITLE "Requiem 4.21"
    PERFORMER "Diary of Dreams  "
    INDEX 01 05:46:60
  TRACK 03 AUDIO
    TITLE "Odyssey Asylum"
    PERFORMER "Diary of Dreams   "
    INDEX 00 11:17:40
    INDEX 01 11:17:46
  TRACK 04 AUDIO
    TITLE "Poison Breed"
    PERFORMER "Diary of Dreams    "
    INDEX 00 15:53:73
    INDEX 01 15:56:31
  TRACK 05 AUDIO
    TITLE "Wahn!Sinn?"
    PERFORMER "Diary of Dreams                      "
    INDEX 00 20:44:42
    INDEX 01 20:46:05
  TRACK 06 AUDIO
    TITLE "the Colors of Grey"
    PERFORMER "Diary of Dreams                                "
    INDEX 00 25:24:56
    INDEX 01 25:26:43
  TRACK 07 AUDIO
    TITLE "Choir Hotel"
    PERFORMER "Diary of Dreams      "
    INDEX 00 32:04:74
    INDEX 01 32:06:71
  TRACK 08 AUDIO
    TITLE "the Chain"
    PERFORMER "Diary of Dreams       "
    INDEX 01 38:23:64
  TRACK 09 AUDIO
    TITLE "King of Nowhere"
    PERFORMER "Diary of Dreams         "
    INDEX 01 43:27:59
  TRACK 10 AUDIO
    TITLE "21 Grams of Nothing"
    PERFORMER "Diary of Dreams          "
    INDEX 01 48:40:62
  TRACK 11 AUDIO
    TITLE "Mind over Matter"
    PERFORMER "Diary of Dreams           "
    INDEX 01 52:45:12
  TRACK 12 AUDIO
    TITLE "Kingdom of Greed"
    PERFORMER "Diary of Dreams             "
    INDEX 00 59:43:49
    INDEX 01 59:45:33
pic
Для увеличения картинки щелкните мышкой по превью

Этот торрент недоступен для скачивания без регистрации, однако доступен по публичной magnet-ссылке (источники с публичных трекеров). Перед использованием ссылки прочтите, пожалуйста Пользовательское соглашение, а также как можно дольше оставайтесь на раздаче! Для того, чтобы скачать сам торрент-файл (который видит больше источников), а также для того, чтобы поблагодарить релизера, вам необходимо зарегистрироваться. Если регистрироваться лень - вы можете также попробовать скачать релиз по нашим партнерским ссылкам ниже. Кроме того, зарегистрированным пользователям не показывается всплывающая реклама при скачивании.

[underverse.su].t63105.torrent
Трекер: Зарегистрирован   [ 15.02.2016 10:55 ]  

Статус: проверено (by Бишеп at 15.02.2016 11:27)
Поблагодарили: 1 человек
Тип торрента: публичный - доступные источники с открытых трекеров: 
Размер: 400 MB (занимает 0,09 DVDR, для записи нужно 1 болванка DVDR/RW)
 
 

31-Янв-2018 21:16

Топик был перенесен из форума EBM, Industrial, Dark Electro, Darkwave, Gothic Synth (Lossless) в форум Архив (HQ электронная музыка)


[cron robot]
 

Яндекс.Метрика powered by Sphinx


В Н И М А Н И Е
Сайт не распространяет и не хранит электронные версии произведений, а лишь бесплатно и без коммерческой выгоды (не требуя взамен платы,
SMS и т.д.) предоставляет доступ к создаваемому пользователями каталогу ссылок на торрент-файлы, которые содержат только списки хеш-сумм.
Убедительная просьба с жалобами обращаться напрямую к пользователю, разместившему торрент файл.

Вверх