Loading...
Error

Аномализа / Anomalisa (Дьюк Джонсон, Чарли Кауфман) [2015 г., мультфильм, драма, комедия, WEB-DL 720p] DVO + Original

Статистика раздачи
Размер:  3,07 GB   |    Зарегистрирован:  2 года 3 месяца   |    Скачан:  4 раза

Полного источника не было: 1 год 7 месяцев

Сидов:  0  |  0 KB/s  ]   Личеров:  0  |  0 KB/s  ]

* - сиды/пиры с внешних источников

   
 
Автор Сообщение

makkol Пол:Муж

16-Мар-2016 23:45

Аномализа / Anomalisa


Год выпуска: 2015
Жанр: мультфильм, драма, комедия
Производство: США [Paramount Animation, Starburns Industries]
Режиссер: Дьюк Джонсон, Чарли Кауфман
Роли озвучивали: Дэвид Тьюлис, Дженнифер Джейсон Ли, Том Нунен
Сюжет фильма:
Майкл Стоун, автор книг по обслуживанию клиентов, страдает от неспособности контактировать с людьми. Однажды, в ходе очередной рабочей поездки, он встречает незнакомца, который меняет его мировосприятие.

  • Мировая премьера: 4 сентября 2015


Качество видео: WEB-DL 720p

Продолжительность: 01:30:39
Формат: MKV
Видео: MPEG-4 AVC, 1280x532 (2.40:1), 23.976 fps, 3971 kbps
Аудио #1: русский, любительский двухголосый закадровый (Parovoz Production), AC3 2.0, 48 kHz, 384 kbps
Аудио #2: английский, оригинал, AC3 5.1, 48 kHz, 384 kbps
Субтитры: английские, французские вшитые отключаемые

Код:

Формат : Matroska
Версия формата : Version 2
Размер файла : 3,07 Гбайт
Продолжительность : 1 ч. 30 м.
Общий поток : 4835 Кбит/сек
Дата кодирования : UTC 2016-03-18 08:35:01
Программа кодирования : mkvmerge v7.7.0 ('Six Voices') 64bit built on Feb 28 2015 23:39:33
Библиотека кодирования : libebml v1.3.1 + libmatroska v1.4.2

Видео
Идентификатор : 1
Формат : AVC
Формат/Информация : Advanced Video Codec
Профиль формата : Main@L3.1
Параметр CABAC формата : Нет
Параметр ReFrames формата : 2 кадра
Идентификатор кодека : V_MPEG4/ISO/AVC
Продолжительность : 1 ч. 30 м.
Битрейт : 3971 Кбит/сек
Ширина : 1280 пикселей
Высота : 532 пикселя
Соотношение сторон : 2,40:1
Режим частоты кадров : Постоянный
Частота кадров : 23,976 кадра/сек
Цветовое пространство : YUV
Субдискретизация насыщенности : 4:2:0
Битовая глубина : 8 бит
Тип развёртки : Прогрессивная
Бит/(Пиксели*Кадры) : 0.243
Размер потока : 2,52 Гбайт (82%)
Заголовок : Аномализа_Anomalisa.2015.WEB-DL720p.NNM-CLUB
Язык : English
Default : Да
Forced : Нет
Цветовой диапазон : Limited
Основные цвета : BT.709
Характеристики трансфера : BT.709
Коэффициенты матрицы : BT.709

Аудио #1
Идентификатор : 2
Формат : AC-3
Формат/Информация : Audio Coding 3
Расширение режима : CM (complete main)
Параметр Endianness формата : Big
Идентификатор кодека : A_AC3
Продолжительность : 1 ч. 30 м.
Вид битрейта : Постоянный
Битрейт : 384 Кбит/сек
Каналы : 2 канала
Расположение каналов : Front: L R
Частота : 48,0 КГц
Частота кадров : 31,250 кадров/сек (1536 spf)
Метод сжатия : С потерями
Размер потока : 249 Мбайт (8%)
Заголовок : DVO - (Parovoz Production)
Язык : Russian
Default : Да
Forced : Нет

Аудио #2
Идентификатор : 3
Формат : AC-3
Формат/Информация : Audio Coding 3
Расширение режима : CM (complete main)
Параметр Endianness формата : Big
Идентификатор кодека : A_AC3
Продолжительность : 1 ч. 30 м.
Вид битрейта : Постоянный
Битрейт : 384 Кбит/сек
Каналы : 6 каналов
Расположение каналов : Front: L C R, Side: L R, LFE
Частота : 48,0 КГц
Частота кадров : 31,250 кадров/сек (1536 spf)
Метод сжатия : С потерями
Размер потока : 249 Мбайт (8%)
Заголовок : English 5.1
Язык : English
Default : Нет
Forced : Нет

Текст #1
Идентификатор : 4
Формат : UTF-8
Идентификатор кодека : S_TEXT/UTF8
Идентификатор кодека/Информация : UTF-8 Plain Text
Заголовок : English
Язык : English
Default : Нет
Forced : Нет

Текст #2
Идентификатор : 5
Формат : UTF-8
Идентификатор кодека : S_TEXT/UTF8
Идентификатор кодека/Информация : UTF-8 Plain Text
Заголовок : français
Язык : French
Default : Нет
Forced : Нет

Меню
00:00:00.000 : en:Chapter 1
00:05:09.000 : en:Chapter 2
00:12:29.000 : en:Chapter 3
00:18:27.000 : en:Chapter 4
00:25:26.000 : en:Chapter 5
00:31:39.000 : en:Chapter 6
00:37:24.000 : en:Chapter 7
00:43:19.000 : en:Chapter 8
00:52:19.000 : en:Chapter 9
01:01:04.000 : en:Chapter 10
01:07:04.000 : en:Chapter 11
01:14:43.000 : en:Chapter 12
01:19:27.000 : en:Chapter 13
01:23:24.000 : en:Chapter 14
Релиз от: NNM-CLUB

Релиз без рекламы


picpicpicpicpic
Для увеличения картинки щелкните мышкой по превью

Этот торрент недоступен для скачивания без регистрации, однако доступен по публичной magnet-ссылке (источники с публичных трекеров). Перед использованием ссылки прочтите, пожалуйста Пользовательское соглашение, а также как можно дольше оставайтесь на раздаче! Для того, чтобы скачать сам торрент-файл (который видит больше источников), а также для того, чтобы поблагодарить релизера, вам необходимо зарегистрироваться. Если регистрироваться лень - вы можете также попробовать скачать релиз по нашим партнерским ссылкам ниже. Кроме того, зарегистрированным пользователям не показывается всплывающая реклама при скачивании.

[underverse.su].t64340.torrent
Трекер: Зарегистрирован   [ 19.03.2016 10:15 ]  

Статус: проверено (by makkol at 22.03.2016 08:11)
Поблагодарили: пока никто не поблагодарил...
Тип торрента: публичный - доступные источники с открытых трекеров: 
Размер: 3,07 GB (занимает 0,7 DVDR, для записи нужно 1 болванка DVDR/RW)
 
 
Похожие темы
Форум Тема Автор Торрент Отв. Посл. сооб.
T Новинки мультфильмов [CAMRip, TS, DVDScr, WP, TC] Аномализа / Anomalisa (Дьюк Джонсон / Duke Johnson, Чарли Кауфман / Charlie Kaufman) [2015 г., мультфильм, драма, комедия, DVDScr] DVO (Parovoz Production) [18+] 90ytr90
1 | 0

0 | 1246

15

14.01.2016 19:40

Архив (мультфильмы) Аномализа / Anomalisa (Дьюк Джонсон, Чарли Кауфман) [2015 г., мультфильм, драма, комедия, WEB-DLRip] DVO + Original makkol
0 | 0

1 | 754

2

31.01.2018 17:13

makkol Пол:Муж

19-Мар-2016 10:16

19.03 торрент обновлён. Теперь без рекламы

Яндекс.Метрика powered by Sphinx


В Н И М А Н И Е
Сайт не распространяет и не хранит электронные версии произведений, а лишь бесплатно и без коммерческой выгоды (не требуя взамен платы,
SMS и т.д.) предоставляет доступ к создаваемому пользователями каталогу ссылок на торрент-файлы, которые содержат только списки хеш-сумм.
Убедительная просьба с жалобами обращаться напрямую к пользователю, разместившему торрент файл.

Вверх