Loading...
Error

(Jazz, Swing, Neo-Swing) Marcella Puppini - Everything Is Beautiful (2015) [FLAC (Image+.Cue), Lossless]

Статистика раздачи
Размер:  384 MB   |    Зарегистрирован:  1 год 9 месяцев   |    Скачан:  9 раз

Полного источника не было: 29 дней

Сидов:  0  |  0 KB/s  ]   Личеров:  0  |  0 KB/s  ]

* - сиды/пиры с внешних источников

   
 
Автор Сообщение

Бишеп Пол:Муж

24-Сен-2016 05:40

Marcella Puppini - Everything Is Beautiful

Жанр: Jazz, Swing, Neo-Swing
Год выпуска: 2015
Источник: CD
Производитель диска: Dead 2 Me Records - D2M111
Аудиокодек: FLAC
Тип рипа: Image+.CUE
Битрейт аудио: lossless
Продолжительность: 00:54:10


Треклист:
01. Everything Is Beautiful (3:36)
02. Slow Down (3:49)
03. I Do (Do I?) (3:45)
04. Sticky Red Sugar (4:02)
05. The Greatest (3:31)
06. Let's Stay In Bed (2:35)
07. Cast The First Stone (3:50)
08. Non Saro Mai Doris Day (4:11)
09. In The Mood for Trouble (4:23)
10. Betty Boop (3:39)
11. So High (5:50)
12. I Know You Lie (4:47)
13. Stop Googling Me (3:49)
14. Boom Boom (2:16)

Код:

Exact Audio Copy V1.0 beta 3 from 29. August 2011

Отчёт EAC об извлечении, выполненном 13. мая 2016, 3:08

Marcella Puppini / Everything Is Beautiful

Дисковод: ATAPI   iHAS424   A   Adapter: 0  ID: 0

Режим чтения                 : Достоверность
Использование точного потока : Да
Отключение кэша аудио        : Да
Использование указателей C2  : Нет

Коррекция смещения при чтении                     : 6
Способность читать области Lead-in и Lead-out     : Нет
Заполнение пропущенных сэмплов тишиной            : Да
Удаление блоков с тишиной в начале и конце        : Нет
При вычислениях CRC использовались нулевые сэмплы : Да
Интерфейс                                         : Установленный внешний ASPI-интерфейс

Выходной формат          : Пользовательский кодировщик
Выбранный битрейт        : 1024 kBit/s
Качество                 : Высокий
Добавление ID3-тега      : Нет
Утилита сжатия           : C:\Program Files\Exact Audio Copy\FLAC\FLAC.EXE
Дополнительные параметры : -8 -V -T "ARTIST=%artist%" -T "ALBUM=%albumtitle%" -T "DATE=%year%" -T "GENRE=%genre%" -T "COMMENT=ripped by izia1956" %source%

TOC извлечённого CD

     Трек |   Старт  | Длительность | Начальный сектор | Конечный сектор
    ---------------------------------------------------------------------
       1  |  0:00.00 |    3:36.72   |           0      |      16271     
       2  |  3:36.72 |    3:49.03   |       16272      |      33449     
       3  |  7:26.00 |    3:45.59   |       33450      |      50383     
       4  | 11:11.59 |    4:02.04   |       50384      |      68537     
       5  | 15:13.63 |    3:31.66   |       68538      |      84428     
       6  | 18:45.54 |    2:35.69   |       84429      |      96122     
       7  | 21:21.48 |    3:50.30   |       96123      |     113402     
       8  | 25:12.03 |    4:11.66   |      113403      |     132293     
       9  | 29:23.69 |    4:23.03   |      132294      |     152021     
      10  | 33:46.72 |    3:39.00   |      152022      |     168446     
      11  | 37:25.72 |    5:50.56   |      168447      |     194752     
      12  | 43:16.53 |    4:47.07   |      194753      |     216284     
      13  | 48:03.60 |    3:49.68   |      216285      |     233527     
      14  | 51:53.53 |    2:16.60   |      233528      |     243787     

Характеристики диапазона извлечения и сообщения об ошибках

Выбранный диапазон

     Имя файла D:\BitComet\The Puppini Sisters\2015 - Marcella Puppini - Everything Is Beautiful\Marcella Puppini - Everything Is Beautiful.wav

     Пиковый уровень 100.0 %
     Скорость извлечения 5.8 X
     Качество диапазона 100.0 %
     CRC теста E501C702
     CRC копии E501C702
     Копирование... OK

Ошибок не произошло

 
AccurateRip: сводка
 
Трек  1  отсутствует в базе данных
Трек  2  отсутствует в базе данных
Трек  3  отсутствует в базе данных
Трек  4  отсутствует в базе данных
Трек  5  отсутствует в базе данных
Трек  6  отсутствует в базе данных
Трек  7  отсутствует в базе данных
Трек  8  отсутствует в базе данных
Трек  9  отсутствует в базе данных
Трек 10  отсутствует в базе данных
Трек 11  отсутствует в базе данных
Трек 12  отсутствует в базе данных
Трек 13  отсутствует в базе данных
Трек 14  отсутствует в базе данных
 
Ни одного трека нет в базе AccurateRip

Конец отчёта

==== Контрольная сумма отчёта 0605FB37DA035CE58BCD65FD6D6F6727A2B24055BAC3388305F21D0AB30BC43D ====

Код:

REM GENRE "Swing, Neo-Swing"
REM DATE 2015
REM DISCID C70CB20E
REM COMMENT "ExactAudioCopy v1.0b3"
PERFORMER "Marcella Puppini"
TITLE "Everything Is Beautiful "
FILE "Marcella Puppini - Everything Is Beautiful.flac" WAVE
  TRACK 01 AUDIO
    TITLE "Everything Is Beautiful"
    PERFORMER "Marcella Puppini"
    INDEX 01 00:00:00
  TRACK 02 AUDIO
    TITLE "Slow Down"
    PERFORMER "Marcella Puppini"
    INDEX 00 03:34:72
    INDEX 01 03:36:72
  TRACK 03 AUDIO
    TITLE "I Do (Do I?)"
    PERFORMER "Marcella Puppini"
    INDEX 00 07:24:00
    INDEX 01 07:26:00
  TRACK 04 AUDIO
    TITLE "Sticky Red Sugar"
    PERFORMER "Marcella Puppini"
    INDEX 00 11:09:59
    INDEX 01 11:11:59
  TRACK 05 AUDIO
    TITLE "The Greatest"
    PERFORMER "Marcella Puppini"
    INDEX 00 15:11:63
    INDEX 01 15:13:63
  TRACK 06 AUDIO
    TITLE "Let's Stay In Bed"
    PERFORMER "Marcella Puppini"
    INDEX 00 18:43:54
    INDEX 01 18:45:54
  TRACK 07 AUDIO
    TITLE "Cast The First Stone"
    PERFORMER "Marcella Puppini"
    INDEX 00 21:19:48
    INDEX 01 21:21:48
  TRACK 08 AUDIO
    TITLE "Non Saro Mai Doris Day"
    PERFORMER "Marcella Puppini"
    INDEX 00 25:10:03
    INDEX 01 25:12:03
  TRACK 09 AUDIO
    TITLE "In The Mood for Trouble"
    PERFORMER "Marcella Puppini"
    INDEX 00 29:21:69
    INDEX 01 29:23:69
  TRACK 10 AUDIO
    TITLE "Betty Boop"
    PERFORMER "Marcella Puppini"
    INDEX 00 33:44:72
    INDEX 01 33:46:72
  TRACK 11 AUDIO
    TITLE "So High"
    PERFORMER "Marcella Puppini"
    INDEX 00 37:23:72
    INDEX 01 37:25:72
  TRACK 12 AUDIO
    TITLE "I Know You Lie"
    PERFORMER "Marcella Puppini"
    INDEX 00 43:14:53
    INDEX 01 43:16:53
  TRACK 13 AUDIO
    TITLE "Stop Googling Me"
    PERFORMER "Marcella Puppini"
    INDEX 00 48:01:60
    INDEX 01 48:03:60
  TRACK 14 AUDIO
    TITLE "Boom Boom"
    PERFORMER "Marcella Puppini"
    INDEX 00 51:51:53
    INDEX 01 51:53:53

Этот торрент недоступен для скачивания без регистрации, однако доступен по публичной magnet-ссылке (источники с публичных трекеров). Перед использованием ссылки прочтите, пожалуйста Пользовательское соглашение, а также как можно дольше оставайтесь на раздаче! Для того, чтобы скачать сам торрент-файл (который видит больше источников), а также для того, чтобы поблагодарить релизера, вам необходимо зарегистрироваться. Если регистрироваться лень - вы можете также попробовать скачать релиз по нашим партнерским ссылкам ниже. Кроме того, зарегистрированным пользователям не показывается всплывающая реклама при скачивании.

[underverse.su].t70454.torrent
Трекер: Зарегистрирован   [ 24.09.2016 05:40 ]  

Статус: проверено (by Бишеп at 24.09.2016 05:40)
Поблагодарили: пока никто не поблагодарил...
Тип торрента: публичный - доступные источники с открытых трекеров: 
Размер: 384 MB (занимает 0,09 DVDR, для записи нужно 1 болванка DVDR/RW)
 
 
Похожие темы
Форум Тема Автор Торрент Отв. Посл. сооб.
Jazz (Jazz, Swing) Big Bad Voodoo Daddy - Louie Louie Louie (2017) [MP3, 320 kbps CBR] Darkferse
9 | 0

0 | 663

4

17.06.2017 10:15

Сборники (Jazz, Swing Jazz) VA - Die Hit-Giganten Best Of Swing & Jazz (2016) [MP3, 320 kbps CBR] Evgenii82
0 | 0

0 | 1378

6

01.11.2016 20:49

Jazz (Lossless) (Jazz, Swing) Bing Crosby - The EP Collection (1998) [FLAC (Image+.CUE), lossless] M-i-i-i-ke
1 | 1

1 | 2602

8

07.09.2013 06:15

Jazz (Lossless) (Jazz, Swing) Bing Crosby, Tony Bennett, Rosemary Clooney, Woody Herman - A Tribute to DUKE (1960) [APE (Image+.CUE), lossless] M-i-i-i-ke
3 | 1

1 | 2627

12

07.09.2013 07:38

Jazz (Lossless) (Jazz, Swing) Ben Webster - Cadillac Slim (2000) [FLAC (Image+.CUE), Lossless] Бишеп
3 | 0

0 | 1047

7

06.04.2014 14:30

Jazz (Lossless) (Jazz, Swing, Big Band) Big Bad Voodoo Daddy - Rattle Them Bones (2012) [FLAC (Image+.CUE), Lossless] Бишеп
7 | 2

0 | 1293

7

22.04.2014 15:49

Jazz (Lossless) (Jazz, Swing) Tape Five - Swing Patrol (2012) [FLAC (Image+.CUE), Lossless] Бишеп
3 | 0

0 | 1161

11

22.04.2014 17:55

Jazz (Lossless) (Jazz, Swing, Big Band) Big Bad Voodoo Daddy - It Feels Like Christmas Time (Deluxe Edition) (2013) [FLAC (Image+.CUE), Lossless] Бишеп
7 | 1

0 | 1295

10

24.04.2014 10:36


Яндекс.Метрика powered by Sphinx


В Н И М А Н И Е
Сайт не распространяет и не хранит электронные версии произведений, а лишь бесплатно и без коммерческой выгоды (не требуя взамен платы,
SMS и т.д.) предоставляет доступ к создаваемому пользователями каталогу ссылок на торрент-файлы, которые содержат только списки хеш-сумм.
Убедительная просьба с жалобами обращаться напрямую к пользователю, разместившему торрент файл.

Вверх