Loading...
Error

Duke Ellington & Louis Armstrong - The Complete Louis Armstrong & Duke Ellington Sessions (1990) [FLAC (tracks+.cue), lossless]

Статистика раздачи
Размер:  318 MB   |    Зарегистрирован:  1 год 8 месяцев   |    Скачан:  2 раза

Полного источника не было: 3 месяца 22 дня

Сидов:  0  |  0 KB/s  ]   Личеров:  0  |  0 KB/s  ]

* - сиды/пиры с внешних источников

   
 
Автор Сообщение

Direktor Пол:Муж

02-Ноя-2016 10:23

Duke Ellington & Louis Armstrong - The Complete Louis Armstrong & Duke Ellington Sessions

Год: 1990
Жанр: Swing, Vocal Jazz
Источник: CD
Издание: Roulette Jazz - CDP 593844
Продолжительность: 01:08:27

Кодек: FLAC
Битрейт: Lossless
Тип рипа: tracks +.cue

Треклист:
01. Duke's Place (5:08)
02. I'm Just A Lucky So And So (3:11)
03. Cottontail (3:47)
04. Mood Indigo (4:00)
05. Do Nothin' Till You Hear From Me (2:39)
06. The Beautiful American (3:11)
07. Black And Tan Fantasy (4:03)
08. Drop Me Off At Harlem (3:53)
09. The Mooche (3:46)
10. In a Mellow Tone (3:53)
11. It Don't Mean A Thing (If It Ain't Got That Swing) (4:01)
12. Solitude (4:58)
13. Don't Get Around Much Anymore (3:35)
14. I'm Beginning To See The Light (3:40)
15. Just Squeeze Me (4:01)
16. I Got It Bad (And That Ain't Good) (5:34)
17. Azalea (5:06)

Код:

Exact Audio Copy V1.1 from 23. June 2015

EAC extraction logfile from 30. October 2016, 20:10

Louis Armstrong & Duke Ellington / The Complete Louis Armstrong & Duke Ellington Sessions

Used drive  : PBDS    CD-ROM DH-48N1S   Adapter: 1  ID: 0

Read mode               : Secure
Utilize accurate stream : Yes
Defeat audio cache      : Yes
Make use of C2 pointers : No

Read offset correction                      : 6
Overread into Lead-In and Lead-Out          : No
Fill up missing offset samples with silence : Yes
Delete leading and trailing silent blocks   : No
Null samples used in CRC calculations       : Yes
Used interface                              : Native Win32 interface for Win NT & 2000
Gap handling                                : Appended to previous track

Used output format              : User Defined Encoder
Selected bitrate                : 768 kBit/s
Quality                         : High
Add ID3 tag                     : No
Command line compressor         : C:\Program Files (x86)\Exact Audio Copy\FLAC\FLAC.EXE
Additional command line options : -8 -V -T "ARTIST=%artist%" -T "TITLE=%title%" -T "ALBUM=%albumtitle%" -T "DATE=%year%" -T "TRACKNUMBER=%tracknr%" -T "GENRE=%genre%" -T "PERFORMER=%albuminterpret%" -T "COMPOSER=%composer%" %haslyrics%--tag-from-file=LYRICS="%lyricsfile%"%haslyrics% -T "ALBUMARTIST=%albumartist%" -T "DISCNUMBER=%cdnumber%" -T "TOTALDISCS=%totalcds%" -T "TOTALTRACKS=%numtracks%" -T "COMMENT=%comment%" %source% -o %dest%

TOC of the extracted CD

     Track |   Start  |  Length  | Start sector | End sector
    ---------------------------------------------------------
        1  |  0:00.32 |  5:08.30 |        32    |    23161
        2  |  5:08.62 |  3:11.28 |     23162    |    37514
        3  |  8:20.15 |  3:47.22 |     37515    |    54561
        4  | 12:07.37 |  4:00.03 |     54562    |    72564
        5  | 16:07.40 |  2:39.02 |     72565    |    84491
        6  | 18:46.42 |  3:11.15 |     84492    |    98831
        7  | 21:57.57 |  4:03.28 |     98832    |   117084
        8  | 26:01.10 |  3:52.70 |    117085    |   134554
        9  | 29:54.05 |  3:46.00 |    134555    |   151504
       10  | 33:40.05 |  3:53.37 |    151505    |   169016
       11  | 37:33.42 |  4:00.45 |    169017    |   187061
       12  | 41:34.12 |  4:57.48 |    187062    |   209384
       13  | 46:31.60 |  3:35.02 |    209385    |   225511
       14  | 50:06.62 |  3:39.55 |    225512    |   241991
       15  | 53:46.42 |  4:00.43 |    241992    |   260034
       16  | 57:47.10 |  5:34.12 |    260035    |   285096
       17  | 63:21.22 |  5:06.03 |    285097    |   308049

Track  1

     Filename C:\EACRips\01 - Duke's Place.wav

     Pre-gap length  0:00:02.42

     Peak level 93.3 %
     Extraction speed 4.1 X
     Track quality 99.9 %
     Test CRC 6BCDB945
     Copy CRC 6BCDB945
     Accurately ripped (confidence 3)  [19DBF5EC]  (AR v2)
     Copy OK

Track  2

     Filename C:\EACRips\02 - I'm Just A Lucky So And So.wav

     Pre-gap length  0:00:01.73

     Peak level 81.6 %
     Extraction speed 4.7 X
     Track quality 100.0 %
     Test CRC 831A4EF1
     Copy CRC 831A4EF1
     Accurately ripped (confidence 3)  [5FC36EAE]  (AR v2)
     Copy OK

Track  3

     Filename C:\EACRips\03 - Cottontail.wav

     Pre-gap length  0:00:01.68

     Peak level 88.0 %
     Extraction speed 5.2 X
     Track quality 100.0 %
     Test CRC F03B77E2
     Copy CRC F03B77E2
     Accurately ripped (confidence 3)  [430DF5E2]  (AR v2)
     Copy OK

Track  4

     Filename C:\EACRips\04 - Mood Indigo.wav

     Pre-gap length  0:00:01.86

     Peak level 78.4 %
     Extraction speed 4.6 X
     Track quality 99.9 %
     Test CRC 7257EECE
     Copy CRC 7257EECE
     Accurately ripped (confidence 3)  [80A0F093]  (AR v2)
     Copy OK

Track  5

     Filename C:\EACRips\05 - Do Nothin' Till You Hear From Me.wav

     Pre-gap length  0:00:01.04

     Peak level 94.2 %
     Extraction speed 4.5 X
     Track quality 99.9 %
     Test CRC 2598C2DE
     Copy CRC 2598C2DE
     Accurately ripped (confidence 3)  [9B64C6D4]  (AR v2)
     Copy OK

Track  6

     Filename C:\EACRips\06 - The Beautiful American.wav

     Pre-gap length  0:00:01.37

     Peak level 83.5 %
     Extraction speed 4.9 X
     Track quality 99.9 %
     Test CRC 41A2E1E1
     Copy CRC 41A2E1E1
     Accurately ripped (confidence 3)  [49C95315]  (AR v2)
     Copy OK

Track  7

     Filename C:\EACRips\07 - Black And Tan Fantasy.wav

     Pre-gap length  0:00:01.90

     Peak level 93.7 %
     Extraction speed 5.5 X
     Track quality 99.9 %
     Test CRC 33EAD9CB
     Copy CRC 33EAD9CB
     Accurately ripped (confidence 3)  [7806CDC8]  (AR v2)
     Copy OK

Track  8

     Filename C:\EACRips\08 - Drop Me Off At Harlem.wav

     Pre-gap length  0:00:01.90

     Peak level 90.6 %
     Extraction speed 6.7 X
     Track quality 100.0 %
     Test CRC 35C9495D
     Copy CRC 35C9495D
     Accurately ripped (confidence 3)  [FA3E7246]  (AR v2)
     Copy OK

Track  9

     Filename C:\EACRips\09 - The Mooche.wav

     Pre-gap length  0:00:02.01

     Peak level 85.4 %
     Extraction speed 6.9 X
     Track quality 100.0 %
     Test CRC FDA93219
     Copy CRC FDA93219
     Accurately ripped (confidence 3)  [B3AACC4C]  (AR v2)
     Copy OK

Track 10

     Filename C:\EACRips\10 - In a Mellow Tone.wav

     Pre-gap length  0:00:01.64

     Peak level 85.3 %
     Extraction speed 7.1 X
     Track quality 100.0 %
     Test CRC 7D65E5CB
     Copy CRC 7D65E5CB
     Accurately ripped (confidence 3)  [5F62AA34]  (AR v2)
     Copy OK

Track 11

     Filename C:\EACRips\11 - It Don't Mean A Thing (If It Ain't Got That Swing).wav

     Pre-gap length  0:00:01.33

     Peak level 89.4 %
     Extraction speed 7.4 X
     Track quality 100.0 %
     Test CRC 465A8040
     Copy CRC 465A8040
     Accurately ripped (confidence 3)  [728A23D9]  (AR v2)
     Copy OK

Track 12

     Filename C:\EACRips\12 - Solitude.wav

     Pre-gap length  0:00:01.06

     Peak level 87.8 %
     Extraction speed 6.7 X
     Track quality 100.0 %
     Test CRC 9FC18A57
     Copy CRC 9FC18A57
     Accurately ripped (confidence 3)  [72E53445]  (AR v2)
     Copy OK

Track 13

     Filename C:\EACRips\13 - Don't Get Around Much Anymore.wav

     Pre-gap length  0:00:01.64

     Peak level 88.9 %
     Extraction speed 7.8 X
     Track quality 100.0 %
     Test CRC CC491189
     Copy CRC CC491189
     Accurately ripped (confidence 3)  [AC6C1376]  (AR v2)
     Copy OK

Track 14

     Filename C:\EACRips\14 - I'm Beginning To See The Light.wav

     Pre-gap length  0:00:02.17

     Peak level 85.7 %
     Extraction speed 6.7 X
     Track quality 99.9 %
     Test CRC 57BB3EC6
     Copy CRC 57BB3EC6
     Accurately ripped (confidence 3)  [D796FE11]  (AR v2)
     Copy OK

Track 15

     Filename C:\EACRips\15 - Just Squeeze Me.wav

     Pre-gap length  0:00:01.84

     Peak level 90.2 %
     Extraction speed 8.4 X
     Track quality 100.0 %
     Test CRC B044474F
     Copy CRC B044474F
     Accurately ripped (confidence 3)  [D416DA8E]  (AR v2)
     Copy OK

Track 16

     Filename C:\EACRips\16 - I Got It Bad (And That Ain't Good).wav

     Pre-gap length  0:00:00.68

     Peak level 88.8 %
     Extraction speed 9.0 X
     Track quality 100.0 %
     Test CRC 7602D625
     Copy CRC 7602D625
     Accurately ripped (confidence 3)  [ED9BA349]  (AR v2)
     Copy OK

Track 17

     Filename C:\EACRips\17 - Azalea.wav

     Pre-gap length  0:00:01.90

     Peak level 84.5 %
     Extraction speed 9.0 X
     Track quality 100.0 %
     Test CRC 06C8F775
     Copy CRC 06C8F775
     Accurately ripped (confidence 3)  [FD8470EA]  (AR v2)
     Copy OK

All tracks accurately ripped

No errors occurred

End of status report

---- CUETools DB Plugin V2.1.6

[CTDB TOCID: IbemXlN.vYXz2JoSCUQ5ZljlEFA-] found
Submit result: IbemXlN.vYXz2JoSCUQ5ZljlEFA- has been confirmed
Track | CTDB Status
  1   | (27/27) Accurately ripped
  2   | (27/27) Accurately ripped
  3   | (27/27) Accurately ripped
  4   | (27/27) Accurately ripped
  5   | (27/27) Accurately ripped
  6   | (27/27) Accurately ripped
  7   | (27/27) Accurately ripped
  8   | (27/27) Accurately ripped
  9   | (27/27) Accurately ripped
 10   | (26/27) Accurately ripped
 11   | (26/27) Accurately ripped
 12   | (26/27) Accurately ripped
 13   | (26/27) Accurately ripped
 14   | (26/27) Accurately ripped
 15   | (24/27) Accurately ripped
 16   | (21/27) Accurately ripped
 17   | (21/27) Accurately ripped

==== Log checksum 7922F483EF654F80D7AB2A2EC1A3F5C6A4158F4E54D867B2EB5A7FE8DCDC0C78 ====

Код:

 
REM DATE 1990
REM DISCID F3100B11
REM COMMENT "ExactAudioCopy v1.1"
PERFORMER "Louis Armstrong & Duke Ellington"
TITLE "The Complete Louis Armstrong & Duke Ellington Sessions"
FILE "01 - Duke's Place.wav" WAVE
  TRACK 01 AUDIO
    TITLE "Duke's Place"
    PERFORMER "Louis Armstrong & Duke Ellington"
    PREGAP 00:00:32
    INDEX 01 00:00:00
  TRACK 02 AUDIO
    TITLE "I'm Just A Lucky So And So"
    PERFORMER "Louis Armstrong & Duke Ellington"
    INDEX 00 05:06:50
FILE "02 - I'm Just A Lucky So And So.wav" WAVE
    INDEX 01 00:00:00
  TRACK 03 AUDIO
    TITLE "Cottontail"
    PERFORMER "Louis Armstrong & Duke Ellington"
    INDEX 00 03:09:52
FILE "03 - Cottontail.wav" WAVE
    INDEX 01 00:00:00
  TRACK 04 AUDIO
    TITLE "Mood Indigo"
    PERFORMER "Louis Armstrong & Duke Ellington"
    INDEX 00 03:45:32
FILE "04 - Mood Indigo.wav" WAVE
    INDEX 01 00:00:00
  TRACK 05 AUDIO
    TITLE "Do Nothin' Till You Hear From Me"
    PERFORMER "Louis Armstrong & Duke Ellington"
    INDEX 00 03:59:00
FILE "05 - Do Nothin' Till You Hear From Me.wav" WAVE
    INDEX 01 00:00:00
  TRACK 06 AUDIO
    TITLE "The Beautiful American"
    PERFORMER "Louis Armstrong & Duke Ellington"
    INDEX 00 02:37:49
FILE "06 - The Beautiful American.wav" WAVE
    INDEX 01 00:00:00
  TRACK 07 AUDIO
    TITLE "Black And Tan Fantasy"
    PERFORMER "Louis Armstrong & Duke Ellington"
    INDEX 00 03:09:22
FILE "07 - Black And Tan Fantasy.wav" WAVE
    INDEX 01 00:00:00
  TRACK 08 AUDIO
    TITLE "Drop Me Off At Harlem"
    PERFORMER "Louis Armstrong & Duke Ellington"
    INDEX 00 04:01:35
FILE "08 - Drop Me Off At Harlem.wav" WAVE
    INDEX 01 00:00:00
  TRACK 09 AUDIO
    TITLE "The Mooche"
    PERFORMER "Louis Armstrong & Duke Ellington"
    INDEX 00 03:50:69
FILE "09 - The Mooche.wav" WAVE
    INDEX 01 00:00:00
  TRACK 10 AUDIO
    TITLE "In a Mellow Tone"
    PERFORMER "Louis Armstrong & Duke Ellington"
    INDEX 00 03:44:27
FILE "10 - In a Mellow Tone.wav" WAVE
    INDEX 01 00:00:00
  TRACK 11 AUDIO
    TITLE "It Don't Mean A Thing (If It Ain't Got That Swing)"
    PERFORMER "Louis Armstrong & Duke Ellington"
    INDEX 00 03:52:12
FILE "11 - It Don't Mean A Thing (If It Ain't Got That Swing).wav" WAVE
    INDEX 01 00:00:00
  TRACK 12 AUDIO
    TITLE "Solitude"
    PERFORMER "Louis Armstrong & Duke Ellington"
    INDEX 00 03:59:40
FILE "12 - Solitude.wav" WAVE
    INDEX 01 00:00:00
  TRACK 13 AUDIO
    TITLE "Don't Get Around Much Anymore"
    PERFORMER "Louis Armstrong & Duke Ellington"
    INDEX 00 04:56:00
FILE "13 - Don't Get Around Much Anymore.wav" WAVE
    INDEX 01 00:00:00
  TRACK 14 AUDIO
    TITLE "I'm Beginning To See The Light"
    PERFORMER "Louis Armstrong & Duke Ellington"
    INDEX 00 03:32:64
FILE "14 - I'm Beginning To See The Light.wav" WAVE
    INDEX 01 00:00:00
  TRACK 15 AUDIO
    TITLE "Just Squeeze Me"
    PERFORMER "Louis Armstrong & Duke Ellington"
    INDEX 00 03:37:67
FILE "15 - Just Squeeze Me.wav" WAVE
    INDEX 01 00:00:00
  TRACK 16 AUDIO
    TITLE "I Got It Bad (And That Ain't Good)"
    PERFORMER "Louis Armstrong & Duke Ellington"
    INDEX 00 03:59:67
FILE "16 - I Got It Bad (And That Ain't Good).wav" WAVE
    INDEX 01 00:00:00
  TRACK 17 AUDIO
    TITLE "Azalea"
    PERFORMER "Louis Armstrong & Duke Ellington"
    INDEX 00 05:32:19
FILE "17 - Azalea.wav" WAVE
    INDEX 01 00:00:00

Код:

-----------------------

DON'T MODIFY THIS FILE

-----------------------

PERFORMER: auCDtect Task Manager, ver. 1.6.0 RC1 build 1.6.0.1
Copyright (c) 2008-2010 y-soft. All rights reserved
[url=http://y-soft.org]http://y-soft.org[/url]

ANALYZER: auCDtect: CD records authenticity detector, version 0.8.2
Copyright (c) 2004 Oleg Berngardt. All rights reserved.
Copyright (c) 2004 Alexander Djourik. All rights reserved.

FILE: 17 - Azalea.flac
  Size: 22241280 Hash: 4B82F9B556006839717651C3D994D8B5 Accuracy: -m0
  Conclusion: CDDA 100%
  Signature: 0F4D07A8E65DB9A52121FBFD0128AF410D3870CE
FILE: 16 - I Got It Bad (And That Ain't Good).flac
  Size: 21683873 Hash: 2ACE9654F5CB10942B70F01A16F7F2B8 Accuracy: -m0
  Conclusion: CDDA 100%
  Signature: 393371804DB8792CF8BFD2E2B6463DECAF916021
FILE: 15 - Just Squeeze Me.flac
  Size: 19226624 Hash: 3F7419FE667D2C0ADD4DA306FBEA1F88 Accuracy: -m0
  Conclusion: CDDA 100%
  Signature: 841B2DEF51F5734698C9ACBC8FCE1597FE28927A
FILE: 14 - I'm Beginning To See The Light.flac
  Size: 17874944 Hash: 50F0A61F8402501C049C213EB47B98F4 Accuracy: -m0
  Conclusion: CDDA 100%
  Signature: 8D21CBE041BD36A0F084C8FB8B04B9FD262119C7
FILE: 13 - Don't Get Around Much Anymore.flac
  Size: 16941056 Hash: 86FE21D40BDA7E8D615DDD252A326BD3 Accuracy: -m0
  Conclusion: CDDA 100%
  Signature: EAC266D120E129ACFE60FE9D4D20A8345ED1DDB6
FILE: 12 - Solitude.flac
  Size: 20000768 Hash: 4C9BFD04FA0D737478526B86642523BD Accuracy: -m0
  Conclusion: CDDA 99%
  Signature: C299607B2865FEAE587F2DFB7BEB1AF6D03864DC
FILE: 11 - It Don't Mean A Thing (If It Ain't Got That Swing).flac
  Size: 20881408 Hash: F412DEB5E2EFA4A2D77C62ADAEC4473E Accuracy: -m0
  Conclusion: CDDA 100%
  Signature: 72416A538B283D6DD1249364D13D617FF3FA1022
FILE: 10 - In a Mellow Tone.flac
  Size: 19415040 Hash: AC5D90094FFC1E63481EAF53A855EFA3 Accuracy: -m0
  Conclusion: CDDA 100%
  Signature: BBB5F6CD465A38A14B5BC32B7D9542ED43F398A4
FILE: 09 - The Mooche.flac
  Size: 16605184 Hash: AF07DC8BE4F9713DE943F2B6C0221B7C Accuracy: -m0
  Conclusion: CDDA 100%
  Signature: E3FBE5760B94933321E86D939E1B5240DD15355D
FILE: 08 - Drop Me Off At Harlem.flac
  Size: 20078592 Hash: 7F7C4CC5897E0DAB5AC6A7C8901AA902 Accuracy: -m0
  Conclusion: CDDA 100%
  Signature: 03D4759806B7458B1681F96CDDA7F939A0F10DEE
FILE: 07 - Black And Tan Fantasy.flac
  Size: 22355968 Hash: AE46B8CA74A748B5482525E4AEBEBB93 Accuracy: -m0
  Conclusion: CDDA 100%
  Signature: F301225F1A8620E31542553C8480BE62DE11067C
FILE: 06 - The Beautiful American.flac
  Size: 16216064 Hash: 620166A5B89623E10156B519D8A40CCE Accuracy: -m0
  Conclusion: CDDA 100%
  Signature: E653CB16276450A5371FFDC2F158C030A5F30223
FILE: 05 - Do Nothin' Till You Hear From Me.flac
  Size: 13399088 Hash: 8BA84AE391B8E7DA76556714D22AFD1A Accuracy: -m0
  Conclusion: CDDA 100%
  Signature: B8F65116FB1049F0E1457E78ACF6E206CFA970E7
FILE: 04 - Mood Indigo.flac
  Size: 18395136 Hash: 8C1A7A6C5EF066E34E07688BDAE9D1FC Accuracy: -m0
  Conclusion: CDDA 99%
  Signature: C950BC01601A74A50FC2075E8C865C922CB4E8FE
FILE: 03 - Cottontail.flac
  Size: 21098496 Hash: B0EBF91B5084ADFD117FBE32249C03AC Accuracy: -m0
  Conclusion: CDDA 100%
  Signature: 534C3E795503880A5CBAAEE29BC3B5B4B5F9B9CC
FILE: 02 - I'm Just A Lucky So And So.flac
  Size: 14761984 Hash: 540C56B2E942B856AFF39BB682A885FD Accuracy: -m0
  Conclusion: CDDA 100%
  Signature: 1F05FFBE89635469E52A59F5BCACD5FF66D4DAF9
FILE: 01 - Duke's Place.flac
  Size: 25198592 Hash: 44C9ADCB304E74E1E1DCE22C5A0EFA5F Accuracy: -m0
  Conclusion: CDDA 100%
  Signature: A540C4217A76502F83154DE2D0B599C88C2A0B7B
 

Этот торрент недоступен для скачивания без регистрации, однако доступен по публичной magnet-ссылке (источники с публичных трекеров). Перед использованием ссылки прочтите, пожалуйста Пользовательское соглашение, а также как можно дольше оставайтесь на раздаче! Для того, чтобы скачать сам торрент-файл (который видит больше источников), а также для того, чтобы поблагодарить релизера, вам необходимо зарегистрироваться. Если регистрироваться лень - вы можете также попробовать скачать релиз по нашим партнерским ссылкам ниже. Кроме того, зарегистрированным пользователям не показывается всплывающая реклама при скачивании.

[underverse.su].t71888.torrent
Трекер: Зарегистрирован   [ 02.11.2016 10:23 ]  

Статус: проверено (by Бишеп at 02.11.2016 11:45)
Поблагодарили: пока никто не поблагодарил...
Тип торрента: публичный - доступные источники с открытых трекеров: 
Размер: 318 MB (занимает 0,07 DVDR, для записи нужно 1 болванка DVDR/RW)
 
 


Последний раз редактировалось: Direktor (02.11.2016 14:25), всего редактировалось 1 раз

Яндекс.Метрика powered by Sphinx


В Н И М А Н И Е
Сайт не распространяет и не хранит электронные версии произведений, а лишь бесплатно и без коммерческой выгоды (не требуя взамен платы,
SMS и т.д.) предоставляет доступ к создаваемому пользователями каталогу ссылок на торрент-файлы, которые содержат только списки хеш-сумм.
Убедительная просьба с жалобами обращаться напрямую к пользователю, разместившему торрент файл.

Вверх