Loading...
Error

(Jazz Fusion) Jerry Goodman - Violin Fantasy (2016) [FLAC (Tracks+.Cue), Lossless]

Статистика раздачи
Размер:  356 MB   |    Зарегистрирован:  1 год 8 месяцев   |    Скачан:  8 раз
Сидов:  1  |  0 KB/s  ]   Личеров:  0  |  0 KB/s  ]

* - сиды/пиры с внешних источников

   
 
Автор Сообщение

Бишеп Пол:Муж

04-Ноя-2016 09:52

Jerry Goodman - Violin Fantasy

Жанр: Jazz Fusion
Год выпуска: 2016
Источник: CD
Производитель диска: Purple Pyramid Records - CLO 0289
Аудиокодек: FLAC
Тип рипа: Tracks+.CUE
Битрейт аудио: lossless
Продолжительность: 00:57:10


Треклист:
01. Enter Sandman
02. In The Realm Of The Netherworld
03. Dream Weaver (Alternate Mix) (with Nektar)
04. Baba O'Riley (Alternate Mix)
05. Violin Fantasy
06. The Laws Of Nature (with Tony Llevin & Billy Sherwood)
07. Rock On
08. In The Air Tonight
09. Don't Stop Believin'
10. Random Acts Of Science (with Rick Wakeman)
11. Eye Of The Tiger
12. The Final Countdown

Код:

Exact Audio Copy V1.1 from 23. June 2015

EAC extraction logfile from 30. September 2016, 20:48

Jerry Goodman / Violin Fantasy

Used drive  : TSSTcorpCDDVDW SH-224DB   Adapter: 1  ID: 0

Read mode               : Secure
Utilize accurate stream : Yes
Defeat audio cache      : Yes
Make use of C2 pointers : No

Read offset correction                      : 6
Overread into Lead-In and Lead-Out          : No
Fill up missing offset samples with silence : Yes
Delete leading and trailing silent blocks   : No
Null samples used in CRC calculations       : Yes
Used interface                              : Native Win32 interface for Win NT & 2000
Gap handling                                : Appended to previous track

Used output format              : User Defined Encoder
Selected bitrate                : 1024 kBit/s
Quality                         : High
Add ID3 tag                     : No
Command line compressor         : C:\Program Files (x86)\Exact Audio Copy\win64\flac.exe
Additional command line options :  -V -8 -T "Date=%year%" -T "Genre=%genre%" %source%

TOC of the extracted CD

     Track |   Start  |  Length  | Start sector | End sector
    ---------------------------------------------------------
        1  |  0:00.00 |  4:23.14 |         0    |    19738   
        2  |  4:23.14 |  3:27.27 |     19739    |    35290   
        3  |  7:50.41 |  3:36.00 |     35291    |    51490   
        4  | 11:26.41 |  4:21.72 |     51491    |    71137   
        5  | 15:48.38 |  3:42.07 |     71138    |    87794   
        6  | 19:30.45 |  7:14.11 |     87795    |   120355   
        7  | 26:44.56 |  4:10.06 |    120356    |   139111   
        8  | 30:54.62 |  4:47.10 |    139112    |   160646   
        9  | 35:41.72 |  4:45.39 |    160647    |   182060   
       10  | 40:27.36 |  7:54.00 |    182061    |   217610   
       11  | 48:21.36 |  3:33.68 |    217611    |   233653   
       12  | 51:55.29 |  5:15.10 |    233654    |   257288   

Track  1

     Filename C:\Sket4er\Jerry Goodman – Violin Fantasy (2016)\01 Enter Sandman.wav

     Pre-gap length  0:00:02.00

     Peak level 98.8 %
     Extraction speed 2.0 X
     Track quality 100.0 %
     Test CRC D9777ED3
     Copy CRC D9777ED3
     Track not present in AccurateRip database
     Copy OK

Track  2

     Filename C:\Sket4er\Jerry Goodman – Violin Fantasy (2016)\02 In The Realm Of The Netherworld.wav

     Peak level 100.0 %
     Extraction speed 2.1 X
     Track quality 100.0 %
     Test CRC 8E52B017
     Copy CRC 8E52B017
     Track not present in AccurateRip database
     Copy OK

Track  3

     Filename C:\Sket4er\Jerry Goodman – Violin Fantasy (2016)\03 Dream Weaver (Alternate Mix) (with Nektar).wav

     Peak level 100.0 %
     Extraction speed 2.2 X
     Track quality 100.0 %
     Test CRC 9F66B90F
     Copy CRC 9F66B90F
     Track not present in AccurateRip database
     Copy OK

Track  4

     Filename C:\Sket4er\Jerry Goodman – Violin Fantasy (2016)\04 Baba O'Riley (Alternate Mix).wav

     Peak level 100.0 %
     Extraction speed 2.0 X
     Track quality 99.9 %
     Test CRC F7DE1253
     Copy CRC F7DE1253
     Track not present in AccurateRip database
     Copy OK

Track  5

     Filename C:\Sket4er\Jerry Goodman – Violin Fantasy (2016)\05 Violin Fantasy.wav

     Peak level 100.0 %
     Extraction speed 2.0 X
     Track quality 99.9 %
     Test CRC CE74E105
     Copy CRC CE74E105
     Track not present in AccurateRip database
     Copy OK

Track  6

     Filename C:\Sket4er\Jerry Goodman – Violin Fantasy (2016)\06 The Laws Of Nature (with Tony Llevin & Billy Sherwood).wav

     Peak level 100.0 %
     Extraction speed 2.9 X
     Track quality 100.0 %
     Test CRC 59510D8D
     Copy CRC 59510D8D
     Track not present in AccurateRip database
     Copy OK

Track  7

     Filename C:\Sket4er\Jerry Goodman – Violin Fantasy (2016)\07 Rock On.wav

     Peak level 96.6 %
     Extraction speed 2.9 X
     Track quality 100.0 %
     Test CRC F25E1BF6
     Copy CRC F25E1BF6
     Track not present in AccurateRip database
     Copy OK

Track  8

     Filename C:\Sket4er\Jerry Goodman – Violin Fantasy (2016)\08 In The Air Tonight.wav

     Peak level 96.9 %
     Extraction speed 2.5 X
     Track quality 99.9 %
     Test CRC DA35FC0D
     Copy CRC DA35FC0D
     Track not present in AccurateRip database
     Copy OK

Track  9

     Filename C:\Sket4er\Jerry Goodman – Violin Fantasy (2016)\09 Don't Stop Believin'.wav

     Peak level 96.9 %
     Extraction speed 2.6 X
     Track quality 99.9 %
     Test CRC B3C771FF
     Copy CRC B3C771FF
     Track not present in AccurateRip database
     Copy OK

Track 10

     Filename C:\Sket4er\Jerry Goodman – Violin Fantasy (2016)\10 Random Acts Of Science (with Rick Wakeman).wav

     Peak level 100.0 %
     Extraction speed 3.6 X
     Track quality 100.0 %
     Test CRC 638EC635
     Copy CRC 638EC635
     Track not present in AccurateRip database
     Copy OK

Track 11

     Filename C:\Sket4er\Jerry Goodman – Violin Fantasy (2016)\11 Eye Of The Tiger.wav

     Peak level 97.2 %
     Extraction speed 3.4 X
     Track quality 100.0 %
     Test CRC 73F7159C
     Copy CRC 73F7159C
     Track not present in AccurateRip database
     Copy OK

Track 12

     Filename C:\Sket4er\Jerry Goodman – Violin Fantasy (2016)\12 The Final Countdown.wav

     Peak level 96.6 %
     Extraction speed 3.7 X
     Track quality 100.0 %
     Test CRC 04701DF2
     Copy CRC 04701DF2
     Track not present in AccurateRip database
     Copy OK

None of the tracks are present in the AccurateRip database

No errors occurred

End of status report

---- CUETools DB Plugin V2.1.6

[CTDB TOCID: Ap4full9ojDeF1dO868BwW0DsUU-] disk not present in database
Submit result: Ap4full9ojDeF1dO868BwW0DsUU- has been uploaded

==== Log checksum 22BC3A52B6F6F349A204F1545FFC1C78AA4938296EDD2E020752F9B20E270EEE ====

Код:

REM GENRE Rock
REM DATE 2016
REM DISCID A10D660C
REM COMMENT "ExactAudioCopy v1.1"
PERFORMER "Jerry Goodman"
TITLE "Violin Fantasy"
FILE "01 Enter Sandman.wav" WAVE
  TRACK 01 AUDIO
    TITLE "Enter Sandman"
    PERFORMER "Jerry Goodman"
    INDEX 01 00:00:00
FILE "02 In The Realm Of The Netherworld.wav" WAVE
  TRACK 02 AUDIO
    TITLE "In The Realm Of The Netherworld"
    PERFORMER "Jerry Goodman"
    INDEX 01 00:00:00
FILE "03 Dream Weaver (Alternate Mix) (with Nektar).wav" WAVE
  TRACK 03 AUDIO
    TITLE "Dream Weaver (Alternate Mix) (with Nektar)"
    PERFORMER "Jerry Goodman"
    INDEX 01 00:00:00
FILE "04 Baba O'Riley (Alternate Mix).wav" WAVE
  TRACK 04 AUDIO
    TITLE "Baba O'Riley (Alternate Mix)"
    PERFORMER "Jerry Goodman"
    INDEX 01 00:00:00
FILE "05 Violin Fantasy.wav" WAVE
  TRACK 05 AUDIO
    TITLE "Violin Fantasy"
    PERFORMER "Jerry Goodman"
    INDEX 01 00:00:00
FILE "06 The Laws Of Nature (with Tony Llevin & Billy Sherwood).wav" WAVE
  TRACK 06 AUDIO
    TITLE "The Laws Of Nature (with Tony Llevin & Billy Sherwood)"
    PERFORMER "Jerry Goodman"
    INDEX 01 00:00:00
FILE "07 Rock On.wav" WAVE
  TRACK 07 AUDIO
    TITLE "Rock On"
    PERFORMER "Jerry Goodman"
    INDEX 01 00:00:00
FILE "08 In The Air Tonight.wav" WAVE
  TRACK 08 AUDIO
    TITLE "In The Air Tonight"
    PERFORMER "Jerry Goodman"
    INDEX 01 00:00:00
FILE "09 Don't Stop Believin'.wav" WAVE
  TRACK 09 AUDIO
    TITLE "Don't Stop Believin'"
    PERFORMER "Jerry Goodman"
    INDEX 01 00:00:00
FILE "10 Random Acts Of Science (with Rick Wakeman).wav" WAVE
  TRACK 10 AUDIO
    TITLE "Random Acts Of Science (with Rick Wakeman)"
    PERFORMER "Jerry Goodman"
    INDEX 01 00:00:00
FILE "11 Eye Of The Tiger.wav" WAVE
  TRACK 11 AUDIO
    TITLE "Eye Of The Tiger"
    PERFORMER "Jerry Goodman"
    INDEX 01 00:00:00
FILE "12 The Final Countdown.wav" WAVE
  TRACK 12 AUDIO
    TITLE "The Final Countdown"
    PERFORMER "Jerry Goodman"
    INDEX 01 00:00:00

Этот торрент недоступен для скачивания без регистрации, однако доступен по публичной magnet-ссылке (источники с публичных трекеров). Перед использованием ссылки прочтите, пожалуйста Пользовательское соглашение, а также как можно дольше оставайтесь на раздаче! Для того, чтобы скачать сам торрент-файл (который видит больше источников), а также для того, чтобы поблагодарить релизера, вам необходимо зарегистрироваться. Если регистрироваться лень - вы можете также попробовать скачать релиз по нашим партнерским ссылкам ниже. Кроме того, зарегистрированным пользователям не показывается всплывающая реклама при скачивании.

[underverse.su].t72138.torrent
Трекер: Зарегистрирован   [ 04.11.2016 09:52 ]  

Статус: проверено (by Бишеп at 04.11.2016 09:52)
Поблагодарили: пока никто не поблагодарил...
Тип торрента: публичный - доступные источники с открытых трекеров: 
Размер: 356 MB (занимает 0,08 DVDR, для записи нужно 1 болванка DVDR/RW)
 
 
Похожие темы
Форум Тема Автор Торрент Отв. Посл. сооб.
Jazz (Jazz Fusion, Jazz-Funk, Post-Bop) Jack DeJohnette, Larry Grenadier, John Medeski, John Scofield - Hudson (2017) [MP3, 320 kbps CBR] Darkferse
7 | 0

0 | 1045

4

17.06.2017 10:24

Jazz (Jazz Fusion, Crossover Jazz) Wolfgang Haffner - Kind of Spain (2017) [MP3, 320 kbps CBR] Darkferse
5 | 0

0 | 682

2

27.08.2017 10:55

Jazz (Jazz Fusion) Marcus Miller - Laid Black (2018) [MP3, 320 kbps CBR] Darkferse
15 | 4

0 | 334

7

13.06.2018 12:10

Jazz (Lossless) (Jazz Fusion) Bunny Brunel & Friends - Bass Ball (2017) [FLAC (Image+.CUE), lossless] Darkferse
10 | 1

0 | 1413

7

10.04.2017 03:05

Jazz (Lossless) (Jazz Fusion) Dennis Chambers - Groove And More (2013) [FLAC (Tracks+.CUE), Lossless] Бишеп
2 | 0

0 | 1140

9

26.04.2014 04:41

Jazz (Lossless) (Jazz Fusion) Alain Caron - Multiple Faces (2013) [FLAC (Tracks+.CUE), Lossless] Бишеп
10 | 0

0 | 1180

13

26.04.2014 05:11

Jazz (Lossless) (Jazz Fusion, Jazz Rock, Ethnic Fusion) Jordi Sabates - Ocells Del Mes Enlla (2008) [FLAC (Tracks+.CUE), Lossless] Бишеп
2 | 0

0 | 1163

6

31.08.2015 18:08


Яндекс.Метрика powered by Sphinx


В Н И М А Н И Е
Сайт не распространяет и не хранит электронные версии произведений, а лишь бесплатно и без коммерческой выгоды (не требуя взамен платы,
SMS и т.д.) предоставляет доступ к создаваемому пользователями каталогу ссылок на торрент-файлы, которые содержат только списки хеш-сумм.
Убедительная просьба с жалобами обращаться напрямую к пользователю, разместившему торрент файл.

Вверх