Loading...
Error

(Jazz, Indie Pop, Soul) Kovacs - Shades Of Black (2015) [FLAC (Image+.Cue), Lossless]

Статистика раздачи
Размер:  277 MB   |    Зарегистрирован:  1 год 8 месяцев   |    Скачан:  3 раза

Полного источника не было: 16 часов

Сидов:  0  |  0 KB/s  ]   Личеров:  0  |  0 KB/s  ]

* - сиды/пиры с внешних источников

   
 
Автор Сообщение

Бишеп Пол:Муж

05-Ноя-2016 18:38

Kovacs - Shades Of Black

Жанр: Jazz, Indie Pop, Soul
Год выпуска: 2015
Источник: CD
Производитель диска: Wolf Recordings - 5054196-5463-2-8
Аудиокодек: FLAC
Тип рипа: Image+.CUE
Битрейт аудио: lossless
Продолжительность: 00:45:04


Треклист:
01. 50 Shades Of Black
02. My Love
03. The Devil You Know
04. Night Of The Nights
05. Wolf In Cheap Clothes
06. Shirley (Sound Of The Underground)
07. He Talks That Shit
08. Diggin'
09. Fool Like You
10. When The Lady's Hurt
11. Whiskey And Fun
12. Song For Joel

Код:

Exact Audio Copy V1.0 beta 4 from 7. December 2014

EAC extraction logfile from 2. April 2015, 18:01

Kovacs  / Shades Of Black

Used drive  : PIONEER DVD-RW  DVR-221L   Adapter: 1  ID: 0

Read mode               : Secure
Utilize accurate stream : Yes
Defeat audio cache      : Yes
Make use of C2 pointers : No

Read offset correction                      : 6
Overread into Lead-In and Lead-Out          : No
Fill up missing offset samples with silence : Yes
Delete leading and trailing silent blocks   : No
Null samples used in CRC calculations       : Yes
Used interface                              : Installed external ASPI interface

Used output format : Internal WAV Routines
Sample format      : 44.100 Hz; 16 Bit; Stereo

TOC of the extracted CD

     Track |   Start  |  Length  | Start sector | End sector
    ---------------------------------------------------------
        1  |  0:00.00 |  3:20.67 |         0    |    15066   
        2  |  3:20.67 |  3:55.47 |     15067    |    32738   
        3  |  7:16.39 |  3:52.74 |     32739    |    50212   
        4  | 11:09.38 |  3:41.01 |     50213    |    66788   
        5  | 14:50.39 |  3:57.39 |     66789    |    84602   
        6  | 18:48.03 |  4:16.60 |     84603    |   103862   
        7  | 23:04.63 |  3:39.64 |    103863    |   120351   
        8  | 26:44.52 |  3:22.67 |    120352    |   135568   
        9  | 30:07.44 |  3:26.49 |    135569    |   151067   
       10  | 33:34.18 |  3:17.69 |    151068    |   165911   
       11  | 36:52.12 |  4:07.25 |    165912    |   184461   
       12  | 40:59.37 |  4:05.37 |    184462    |   202873   

Range status and errors

Selected range

     Filename D:\POST 2\Kovacs - Shades Of Black (EAC)\Kovacs  - Shades Of Black.wav

     Peak level 94.6 %
     Extraction speed 6.7 X
     Range quality 100.0 %
     Test CRC 426304EF
     Copy CRC 426304EF
     Copy OK

No errors occurred

 
AccurateRip summary
 
Track  1  not present in database
Track  2  not present in database
Track  3  not present in database
Track  4  not present in database
Track  5  not present in database
Track  6  not present in database
Track  7  not present in database
Track  8  not present in database
Track  9  not present in database
Track 10  not present in database
Track 11  not present in database
Track 12  not present in database
 
None of the tracks are present in the AccurateRip database

End of status report

Код:

REM GENRE Pop
REM DATE 2015
REM DISCID 8B0A900C
REM COMMENT ExactAudioCopy v1.0b4
PERFORMER "Kovacs"
TITLE "Shades Of Black"
FILE "Kovacs  - Shades Of Black.flac" WAVE
  TRACK 01 AUDIO
    TITLE "50 Shades Of Black"
    PERFORMER "Kovacs"
    INDEX 01 00:00:00
  TRACK 02 AUDIO
    TITLE "My Love"
    PERFORMER "Kovacs"
    INDEX 01 03:20:67
  TRACK 03 AUDIO
    TITLE "The Devil You Know"
    PERFORMER "Kovacs"
    INDEX 01 07:16:39
  TRACK 04 AUDIO
    TITLE "Night Of The Nights"
    PERFORMER "Kovacs"
    INDEX 01 11:09:38
  TRACK 05 AUDIO
    TITLE "Wolf In Cheap Clothes"
    PERFORMER "Kovacs"
    INDEX 01 14:50:39
  TRACK 06 AUDIO
    TITLE "Shirley (Sound Of The Underground)"
    PERFORMER "Kovacs"
    INDEX 01 18:48:03
  TRACK 07 AUDIO
    TITLE "He Talks That Shit"
    PERFORMER "Kovacs"
    INDEX 01 23:04:63
  TRACK 08 AUDIO
    TITLE "Diggin'"
    PERFORMER "Kovacs"
    INDEX 01 26:44:52
  TRACK 09 AUDIO
    TITLE "Fool Like You"
    PERFORMER "Kovacs"
    INDEX 01 30:07:44
  TRACK 10 AUDIO
    TITLE "When The Lady's Hurt"
    PERFORMER "Kovacs"
    INDEX 01 33:34:18
  TRACK 11 AUDIO
    TITLE "Whiskey And Fun"
    PERFORMER "Kovacs"
    INDEX 01 36:52:12
  TRACK 12 AUDIO
    TITLE "Song For Joel"
    PERFORMER "Kovacs"
    INDEX 00 40:44:54
    INDEX 01 40:59:37

Этот торрент недоступен для скачивания без регистрации, однако доступен по публичной magnet-ссылке (источники с публичных трекеров). Перед использованием ссылки прочтите, пожалуйста Пользовательское соглашение, а также как можно дольше оставайтесь на раздаче! Для того, чтобы скачать сам торрент-файл (который видит больше источников), а также для того, чтобы поблагодарить релизера, вам необходимо зарегистрироваться. Если регистрироваться лень - вы можете также попробовать скачать релиз по нашим партнерским ссылкам ниже. Кроме того, зарегистрированным пользователям не показывается всплывающая реклама при скачивании.

[underverse.su].t72384.torrent
Трекер: Зарегистрирован   [ 05.11.2016 18:38 ]  

Статус: проверено (by Бишеп at 05.11.2016 18:38)
Поблагодарили: пока никто не поблагодарил...
Тип торрента: публичный - доступные источники с открытых трекеров: 
Размер: 277 MB (занимает 0,06 DVDR, для записи нужно 1 болванка DVDR/RW)
 
 

Яндекс.Метрика powered by Sphinx


В Н И М А Н И Е
Сайт не распространяет и не хранит электронные версии произведений, а лишь бесплатно и без коммерческой выгоды (не требуя взамен платы,
SMS и т.д.) предоставляет доступ к создаваемому пользователями каталогу ссылок на торрент-файлы, которые содержат только списки хеш-сумм.
Убедительная просьба с жалобами обращаться напрямую к пользователю, разместившему торрент файл.

Вверх